Planets Sun Sun Sun

COVID-19 - Последняя информация о коронавирусе на сайте Минздрава


Статистика раздачи
Автор: Nickolas3434 | Размер: 370.85 МБ | Добавлен: 25 апр 2017
Скачать торрент
Скачать торрент

СообщениеДобавлено: 25 апр 2017 

Название: Keep on Steppin': The Best of Junior Wells
Исполнитель: Junior Wells
Год: 1998
Жанр: Electric Harmonica Chicago Blues
Продолжительность: 01:03:46
Формат/Кодек: FLAC
Битрейт аудио: Lossless
1. Oh, Pretty Woman (Williams) [5:51]
2. Sweet Sixteen (Green, Josea, King) [4:54]
3. Give Me One Reason (Chapman) [5:00]
4. Get Down (Allen, Brown, Dickerson ...) [4:58]
5. Keep on Steppin' (Wells) [4:46]
6. Broke and Hungry (Wells) [6:22]
7. Mystery Train (Parker, Phillips) [6:59]
8. Use Me (Withers) [5:22]
9. Kingfish Blues (Whittaker) [5:18]
10. Why Are People Like That? (Charles) [3:52]
11. The Train (Charles) [5:02]
12. Messin' with the Kid (London, Wells) [4:57]

Дополнительная информация:
Exact Audio Copy V0.99 prebeta 4 from 23. January 2008
EAC extraction logfile from 3. January 2009, 12:56
Junior Wells / Keep On Steppin': The Best of Junior Wells
Used drive : ATAPI DVD A DH20A4P Adapter: 3 ID: 1
Read mode : Secure
Utilize accurate stream : Yes
Defeat audio cache : Yes
Make use of C2 pointers : No
Read offset correction : 6
Overread into Lead-In and Lead-Out : No
Fill up missing offset samples with silence : Yes
Delete leading and trailing silent blocks : No
Null samples used in CRC calculations : Yes
Used interface : Installed external ASPI interface
Gap handling : Appended to previous track
Used output format : Internal WAV Routines
Sample format : 44.100 Hz; 16 Bit; Stereo
TOC of the extracted CD
Track | Start | Length | Start sector | End sector
---------------------------------------------------------
1 | 0:00.00 | 5:52.07 | 0 | 26406
2 | 5:52.07 | 4:54.38 | 26407 | 48494
3 | 10:46.45 | 5:04.40 | 48495 | 71334
4 | 15:51.10 | 5:00.62 | 71335 | 93896
5 | 20:51.72 | 4:49.00 | 93897 | 115571
6 | 25:40.72 | 6:24.48 | 115572 | 144419
7 | 32:05.45 | 7:02.30 | 144420 | 176099
8 | 39:08.00 | 5:23.20 | 176100 | 200344
9 | 44:31.20 | 5:18.65 | 200345 | 224259
10 | 49:50.10 | 3:53.67 | 224260 | 241801
11 | 53:44.02 | 5:05.35 | 241802 | 264711
12 | 58:49.37 | 4:57.18 | 264712 | 287004
Track 1
Filename L:TorrentsJunior Wells - Keep on Steppin', The Best of Junior Wells (1998) [FLAC]\01 - Junior Wells - Oh, Pretty Woman.wav
Pre-gap length 0:00:02.00
Peak level 100.0 %
Track quality 100.0 %
Test CRC 18955748
Copy CRC 18955748
Cannot be verified as accurate (confidence 3) [3366D9A6], AccurateRip returned [D8581F0B]
Copy OK
Track 2
Filename L:TorrentsJunior Wells - Keep on Steppin', The Best of Junior Wells (1998) [FLAC]\02 - Junior Wells - Sweet Sixteen.wav
Pre-gap length 0:00:01.02
Peak level 100.0 %
Track quality 99.9 %
Test CRC 9BA0B35A
Copy CRC 9BA0B35A
Cannot be verified as accurate (confidence 3) [B8A3B85E], AccurateRip returned [04418834]
Copy OK
Track 3
Filename L:TorrentsJunior Wells - Keep on Steppin', The Best of Junior Wells (1998) [FLAC]\03 - Junior Wells - Give Me One Reason.wav
Peak level 96.4 %
Track quality 100.0 %
Test CRC 3A1E8466
Copy CRC 3A1E8466
Cannot be verified as accurate (confidence 3) [92E16FF2], AccurateRip returned [4D7F1760]
Copy OK
Track 4
Filename L:TorrentsJunior Wells - Keep on Steppin', The Best of Junior Wells (1998) [FLAC]\04 - Junior Wells - Get Down.wav
Pre-gap length 0:00:04.50
Peak level 100.0 %
Track quality 99.9 %
Test CRC D8A9CA69
Copy CRC D8A9CA69
Cannot be verified as accurate (confidence 3) [29934B57], AccurateRip returned [A1AA17D8]
Copy OK
Track 5
Filename L:TorrentsJunior Wells - Keep on Steppin', The Best of Junior Wells (1998) [FLAC]\05 - Junior Wells - Keep On Steppin'.wav
Pre-gap length 0:00:02.10
Peak level 100.0 %
Track quality 100.0 %
Test CRC 4B5079A2
Copy CRC 4B5079A2
Cannot be verified as accurate (confidence 3) [2E9B1C8F], AccurateRip returned [18A495C7]
Copy OK
Track 6
Filename L:TorrentsJunior Wells - Keep on Steppin', The Best of Junior Wells (1998) [FLAC]\06 - Junior Wells - Broke and Hungry.wav
Pre-gap length 0:00:02.50
Peak level 79.4 %
Track quality 100.0 %
Test CRC 0708A2A0
Copy CRC 0708A2A0
Cannot be verified as accurate (confidence 3) [6E4BBD73], AccurateRip returned [E53E2DAE]
Copy OK
Track 7
Filename L:TorrentsJunior Wells - Keep on Steppin', The Best of Junior Wells (1998) [FLAC]\07 - Junior Wells - Mystery Train.wav
Pre-gap length 0:00:02.30
Peak level 100.0 %
Track quality 99.9 %
Test CRC B75D077C
Copy CRC B75D077C
Cannot be verified as accurate (confidence 3) [CB3B838D], AccurateRip returned [53536183]
Copy OK
Track 8
Filename L:TorrentsJunior Wells - Keep on Steppin', The Best of Junior Wells (1998) [FLAC]\08 - Junior Wells - Use Me.wav
Pre-gap length 0:00:02.45
Peak level 99.9 %
Track quality 100.0 %
Test CRC F3919C47
Copy CRC F3919C47
Cannot be verified as accurate (confidence 3) [BFC60645], AccurateRip returned [AEC2DD8E]
Copy OK
Track 9
Filename L:TorrentsJunior Wells - Keep on Steppin', The Best of Junior Wells (1998) [FLAC]\09 - Junior Wells - King Fish Blues.wav
Pre-gap length 0:00:01.13
Peak level 100.0 %
Track quality 100.0 %
Test CRC D356CCB7
Copy CRC D356CCB7
Cannot be verified as accurate (confidence 3) [A4F938F0], AccurateRip returned [F6683D77]
Copy OK
Track 10
Filename L:TorrentsJunior Wells - Keep on Steppin', The Best of Junior Wells (1998) [FLAC]10 - Junior Wells - Why Are People Like That .wav
Peak level 99.9 %
Track quality 100.0 %
Test CRC 5D315546
Copy CRC 5D315546
Cannot be verified as accurate (confidence 3) [EC7D3708], AccurateRip returned [BD7EBC6D]
Copy OK
Track 11
Filename L:TorrentsJunior Wells - Keep on Steppin', The Best of Junior Wells (1998) [FLAC]11 - Junior Wells - The Train.wav
Pre-gap length 0:00:02.05
Peak level 100.0 %
Track quality 100.0 %
Test CRC 9F99EFB6
Copy CRC 9F99EFB6
Cannot be verified as accurate (confidence 2) [D4291044], AccurateRip returned [A87787A9]
Copy OK
Track 12
Filename L:TorrentsJunior Wells - Keep on Steppin', The Best of Junior Wells (1998) [FLAC]12 - Junior Wells - Messin' With the Kid.wav
Pre-gap length 0:00:02.47
Peak level 79.4 %
Track quality 100.0 %
Test CRC C5284D41
Copy CRC C5284D41
Cannot be verified as accurate (confidence 3) [DD70E015], AccurateRip returned [DFCBD6B8]
Copy OK
No tracks could be verified as accurate
You may have a different pressing from the one(s) in the database
No errors occurred
End of status report

Лейбл: Telarc Distribution CD-83444
Тип рипа: tracks+.cue



   Похожие торренты   Размер 
В этой теме нет новых непрочитанных сообщений. Junior Wells - Keep on Steppin': The Best of Junior Wells (1998) MP3

146.15 МБ

В этой теме нет новых непрочитанных сообщений. Junior Senior - D-D-Don't Don't Stop the Beat (2003) FLAC

324.36 МБ

В этой теме нет новых непрочитанных сообщений. Dickie Wells - The Chronological Classics [1927-1943] (1997) MP3

167.87 МБ

В этой теме нет новых непрочитанных сообщений. Junior Boys - Big Black Coat (2016) FLAC

270.06 МБ

В этой теме нет новых непрочитанных сообщений. VA - Club Music Junior Union (2016) MP3

1.02 ГБ

В этой теме нет новых непрочитанных сообщений. Junior - Poczuj Ten Rytm [2011, Pop, MP3]

158.49 МБ

В этой теме нет новых непрочитанных сообщений. Junior Oliver - Bristol Fashion [Jamal The Moroccan] (2015) MP3

108.06 МБ




Вы не можете начинать темы
Вы не можете отвечать на сообщения
Вы не можете редактировать свои сообщения
Вы не можете удалять свои сообщения
Вы не можете добавлять вложения

Перейти:  
 Вход
ppkBB3cker v.2 © 2008-2014 @ PPK
[ Time : 0.017s | 17 Queries | GZIP : Off ]

Для правообладателей, рекламодателей и роскомнадзора: rstracker[собачка]yandex.ru
cron