Planets Sun Sun Sun
Статистика раздачи
Автор: PriZraK | Размер: 968.55 МБ | Добавлен: 19 июн 2019
Скачать торрент
Скачать торрент

СообщениеДобавлено: 19 июн 2019 

Bill Haley And His Comets – 20 Golden Greats (Vinyl rip 24 bit 96 khz)

Формат: FLAC, tracks, lossless
Год выпуска: 1985
Страна: USA
Жанр: Rock, Rock & Roll
Продолжительность: 00:48:56
Описание:
A1. Rock Around The Clock
A2. Saints Rock And Roll
A3. Razzle Dazzle
A4. Blue Comet Blues
A5. Skokiaan
A6. Shake Rattle And Roll
A7. ABC Boogie
A8. See You Later Alligator
A9. Rip It Up
A10. Caravan

B1. Whole Lotta Shakin' Goin' On
B2. How Many
B3. Land Of A Thousand Dances
B4. Skinny Minnie
B5. Harlem Nocturne
B6. Justine
B7. The Seventh Son
B8. Mohair Sam
B9. New Orleans
B10. Hi-Heel Sneakers


Доп. информация:
foobar2000 1.1.10 / Dynamic Range Meter 1.1.1
log date: 2018-05-24 17:07:41

--------------------------------------------------------------------------------
Analyzed: Bill Haley And His Comets / 20 Golden Greats
--------------------------------------------------------------------------------

DR Peak RMS Duration Track
--------------------------------------------------------------------------------
DR12 -0.26 dB -13.00 dB 2:12 ?-A1. Rock Around The Clock
DR13 -0.26 dB -15.67 dB 2:37 ?-A2. Saints Rock And Roll
DR13 -0.26 dB -15.88 dB 2:08 ?-A3. Razzle Dazzle
DR12 -0.26 dB -14.69 dB 2:08 ?-A4. Blue Comet Blues
DR12 -0.26 dB -15.45 dB 2:20 ?-A5. Skokiaan
DR13 -0.26 dB -14.65 dB 2:34 ?-A6. Shake Rattle And Roll
DR13 -0.26 dB -16.23 dB 2:22 ?-A7. ABC Boogie
DR13 -0.26 dB -17.04 dB 2:46 ?-A8. See You Later Alligator
DR13 -0.26 dB -16.03 dB 2:33 ?-A9. Rip It Up
DR12 -0.26 dB -16.21 dB 2:16 ?-A10. Caravan
DR13 -0.26 dB -15.99 dB 2:11 ?-B1. Whole Lotta Shakin' Goin' On
DR13 -0.26 dB -17.10 dB 2:29 ?-B2. How Many
DR12 -0.26 dB -14.79 dB 3:30 ?-B3. Land Of A Thousand Dances
DR13 -0.26 dB -16.44 dB 2:44 ?-B4. Skinny Minnie
DR14 -0.26 dB -18.26 dB 2:30 ?-B5. Harlem Nocturne
DR12 -0.26 dB -15.50 dB 1:55 ?-B6. Justine
DR13 -0.26 dB -15.74 dB 2:13 ?-B7. The Seventh Son
DR13 -0.26 dB -16.79 dB 2:28 ?-B8. Mohair Sam
DR13 -0.26 dB -17.42 dB 2:42 ?-B9. New Orleans
DR13 -0.26 dB -16.91 dB 2:19 ?-B10. Hi-Heel Sneakers
--------------------------------------------------------------------------------

Number of tracks: 20
Official DR value: DR13

Samplerate: 96000 Hz
Channels: 2
Bits per sample: 24
Bitrate: 2741 kbps
Codec: FLAC
================================================================================




   Похожие торренты   Размер 
В этой теме нет новых непрочитанных сообщений. Cliff Richard – Rock 'N' Roll Juvenile (Vinyl rip 24 bit 96 khz) [1979, Rock, Rock & Roll, FLAC]

899.92 МБ

В этой теме нет новых непрочитанных сообщений. Robert Palmer – Riptide (Vinyl rip 24 bit 96 khz) [1985, Rock, Pop Rock, Soul, FLAC]

723.79 МБ

В этой теме нет новых непрочитанных сообщений. The Who – Meaty, Beaty, Big & Bouncy (Vinyl rip 24 bit 96 khz) [1978, Rock, Rock & Roll, Mod, Beat, FLAC]

885.53 МБ

В этой теме нет новых непрочитанных сообщений. OST Various Artists - Back To The Future. Music From The Motion Picture Soundtrack (Vinyl rip 24 bit 96 khz) [1985, Rock, Pop, Pop Rock, Synth-Pop, FLAC]

725.27 МБ

В этой теме нет новых непрочитанных сообщений. Leo Sayer - 4 Albums (Vinyl rip 24 bit 96 khz) [1974-82, Rock, Pop Rock, Soft Rock, FLAC]

2.96 ГБ

В этой теме нет новых непрочитанных сообщений. Linda Ronstadt – Greatest Hits (Vinyl rip 24 bit 96 khz) [1976, Rock, Country Rock, Pop Rock, FLAC]

756.57 МБ

В этой теме нет новых непрочитанных сообщений. Steve Miller Band – Anthology (Vinyl rip 24 bit 96 khz) [1972, Rock, Blues Rock, Pop Rock, FLAC]

1.26 ГБ




Вы не можете начинать темы
Вы не можете отвечать на сообщения
Вы не можете редактировать свои сообщения
Вы не можете удалять свои сообщения
Вы не можете добавлять вложения

Перейти:  
cron
 Вход
ppkBB3cker v.2 © 2008-2014 @ PPK
[ Time : 0.019s | 18 Queries | GZIP : Off ]

Для правообладателей, рекламодателей и роскомнадзора: rstracker[собачка]yandex.ru
cron