Planets Sun Sun Sun
Статистика раздачи
Автор: PriZraK | Размер: 245.78 МБ | Добавлен: 19 июн 2019
Скачать торрент
Скачать торрент

СообщениеДобавлено: 19 июн 2019 

k.d. lang and the reclines - Angel With A Lariat

Формат: FLAC, (image + .cue), lossless
Год выпуска: 1987
Страна: Canada
Жанр: Rock, Pop, Folk, Country Rock, Pop Rock
Продолжительность: 00:31:00
Описание:

1. Turn Me Round (3:16)
2. High Time for a Detour (4:06)
3. Diet of Strange Places (3:53)
4. Got the Bull by the Horns (3:00)
5. Watch Your Step Polka (2:02)
6. Rose Garden (3:19)
7. Tune Into My Wave (3:35)
8. Angel With a Lariat (3:11)
9. Pay Dirt (2:09)

Доп. информация:
https://en.wikipedia.org/wiki/K.d._lang
Exact Audio Copy V1.0 beta 3 from 29. August 2011

EAC extraction logfile from 30. May 2018, 0:52

K.D. Lang & The Reclines / Angel With a Lariat

Used drive : PIONEER BD-RW BDR-TD03 Adapter: 0 ID: 1

Read mode : Secure
Utilize accurate stream : Yes
Defeat audio cache : Yes
Make use of C2 pointers : No

Read offset correction : 667
Overread into Lead-In and Lead-Out : No
Fill up missing offset samples with silence : Yes
Delete leading and trailing silent blocks : No
Null samples used in CRC calculations : Yes
Used interface : Native Win32 interface for Win NT & 2000

Used output format : User Defined Encoder
Selected bitrate : 768 kBit/s
Quality : High
Add ID3 tag : No
Command line compressor : C:\Program Files (x86)\Exact Audio Copy\FLAC\FLAC.EXE
Additional command line options : -6 -V -T "ARTIST=%artist%" -T "TITLE=%title%" -T "ALBUM=%albumtitle%" -T "DATE=%year%" -T "TRACKNUMBER=%tracknr%" -T "GENRE=%genre%" -T "COMMENT=%comment%" -T "BAND=%albuminterpret%" -T "ALBUMARTIST=%albuminterpret%" -T "COMPOSER=%composer%" %haslyrics%--tag-from-file=LYRICS="%lyricsfile%"%haslyrics% -T "DISCNUMBER=%cdnumber%" -T "TOTALDISCS=%totalcds%" -T "TOTALTRACKS=%numtracks%" %hascover%--picture="%coverfile%"%hascover% %source% -o %dest%

TOC of the extracted CD

Track | Start | Length | Start sector | End sector
---------------------------------------------------------
1 | 0:00.33 | 3:16.40 | 33 | 14772
2 | 3:16.73 | 4:06.55 | 14773 | 33277
3 | 7:23.53 | 3:53.55 | 33278 | 50807
4 | 11:17.33 | 3:00.12 | 50808 | 64319
5 | 14:17.45 | 2:02.58 | 64320 | 73527
6 | 16:20.28 | 3:19.27 | 73528 | 88479
7 | 19:39.55 | 3:35.55 | 88480 | 104659
8 | 23:15.35 | 3:11.08 | 104660 | 118992
9 | 26:26.43 | 2:09.52 | 118993 | 128719
10 | 28:36.20 | 2:29.35 | 128720 | 139929

Range status and errors

Selected range

Filename C:\Users\Deris\Desktop\kpnemo.eu\kdlang87\K.D. Lang & The Reclines - Angel With a Lariat.wav

Peak level 100.0 %
Extraction speed 4.1 X
Range quality 100.0 %
Test CRC 02B507D6
Copy CRC 02B507D6
Copy OK

No errors occurred

AccurateRip summary

Track 1 accurately ripped (confidence 24) [65BC69E6] (AR v2)
Track 2 accurately ripped (confidence 25) [4FB1AD9C] (AR v2)
Track 3 accurately ripped (confidence 24) [FF6FF1CF] (AR v2)
Track 4 accurately ripped (confidence 25) [80C12005] (AR v2)
Track 5 accurately ripped (confidence 25) [C000224C] (AR v2)
Track 6 accurately ripped (confidence 25) [0C53FA71] (AR v2)
Track 7 accurately ripped (confidence 25) [A8E7D4EB] (AR v2)
Track 8 accurately ripped (confidence 25) [B2B7F3B6] (AR v2)
Track 9 accurately ripped (confidence 25) [9CEE494B] (AR v2)
Track 10 accurately ripped (confidence 25) [FD25BA04] (AR v2)

All tracks accurately ripped

End of status report

---- CUETools DB Plugin V2.1.3

[CTDB TOCID: WDat.edOECwxFuidgQJYX2W7jdo-] found
[11a837dd] (45/51) No match
[ec487000] (01/51) Accurately ripped
[83fbfa3d] (01/51) Accurately ripped
[ee4dec11] (01/51) Accurately ripped
[a4481352] (01/51) Accurately ripped
[77ec4b43] (01/51) Accurately ripped
[e760eee6] (01/51) Accurately ripped

==== Log checksum AA0345BA72B57322EBD43A72BEC74C855C2621ABD75860126ED13C1047505C86 ====



   Похожие торренты   Размер 
В этой теме нет новых непрочитанных сообщений. Dan + Shay - Obsessed [24 bit 44,1 khz] [2016, Rock, Pop, Folk, Pop Rock, Country, FLAC]

445.55 МБ

В этой теме нет новых непрочитанных сообщений. VA - Time Life - Sounds Of The Seventies - Series Collection (19CD Collection) [1989-1993, Rock, Folk Rock, Rock & Roll, Pop Rock, Pop, FLAC]

8.27 ГБ

В этой теме нет новых непрочитанных сообщений. Bruce Springsteen – Tunnel Of Love (Vinyl rip 24 bit 96 khz) [1987, Rock, Pop, Soft Rock, Pop Rock, FLAC]

924.78 МБ

В этой теме нет новых непрочитанных сообщений. Heart - Collection [1982-2010, Rock, Hard Rock, Folk Rock, Pop Rock, FLAC]

1.97 ГБ

В этой теме нет новых непрочитанных сообщений. Eagles - Selected Works 1972-1999 (4CD Box Set) [2000, Rock, Country Rock, Soft Rock, Folk Rock, FLAC]

1.59 ГБ

В этой теме нет новых непрочитанных сообщений. Cat Stevens - Teaser And The Firecat (Remasters 2000) [1971, Rock, Folk Rock, Pop Rock, FLAC]

195.93 МБ

В этой теме нет новых непрочитанных сообщений. Big Country - Live At Barrowland 1983 (The Homecoming) [2009, Rock, Alternative Rock, Pop Rock, FLAC]

552.96 МБ




Вы не можете начинать темы
Вы не можете отвечать на сообщения
Вы не можете редактировать свои сообщения
Вы не можете удалять свои сообщения
Вы не можете добавлять вложения

Перейти:  
 Вход
ppkBB3cker v.2 © 2008-2014 @ PPK
[ Time : 0.610s | 18 Queries | GZIP : Off ]

Для правообладателей, рекламодателей и роскомнадзора: rstracker[собачка]yandex.ru
cron