Planets Sun Sun Sun
Статистика раздачи
Автор: PriZraK | Размер: 339.51 МБ | Добавлен: 19 июн 2019

Скачать торрент
Скачать торрент

СообщениеДобавлено: 19 июн 2019 

The Romantic Strings Orchestra - Night And Day: The Great Songs Of Cole Porter

Формат: FLAC, (image + .cue), lossless
Год выпуска: 1993
Страна: USA
Жанр: Pop, Easy Listening
Продолжительность: 00:59:52
Описание:
01. Begin the Beguine
02. Easy to Love
03. Let's Do It Let's Fall in Love
04. Night and Day
05. I Get a Kick Out of You
06. True Love
07. You'd Be So Nice to Come Home To
08. From This Moment On
09. In the Still of the Night
10. It's All Right With Me
11. Just One of Those Things
12. I Love Paris
13. So in Love
14. I Love You
15. What Is This Thing Called Love
16. Do I Love You
17. I've Got You Under My Skin
18. Anything Goes
19. My Heart Belongs to Daddy
20. Every Time We Say Goodbye


Доп. информация:
Exact Audio Copy V1.0 beta 3 from 29. August 2011

EAC extraction logfile from 13. August 2018, 14:33

Reader's Digest The World's Most Beautiful Melodies / NIGHT AND DAY/The Great Songs of Cole Porter

Used drive : PIONEER BD-RW BDR-TD03 Adapter: 0 ID: 1

Read mode : Secure
Utilize accurate stream : Yes
Defeat audio cache : Yes
Make use of C2 pointers : No

Read offset correction : 667
Overread into Lead-In and Lead-Out : No
Fill up missing offset samples with silence : Yes
Delete leading and trailing silent blocks : No
Null samples used in CRC calculations : Yes
Used interface : Native Win32 interface for Win NT & 2000

Used output format : User Defined Encoder
Selected bitrate : 768 kBit/s
Quality : High
Add ID3 tag : No
Command line compressor : C:\Program Files (x86)\Exact Audio Copy\FLAC\FLAC.EXE
Additional command line options : -6 -V -T "ARTIST=%artist%" -T "TITLE=%title%" -T "ALBUM=%albumtitle%" -T "DATE=%year%" -T "TRACKNUMBER=%tracknr%" -T "GENRE=%genre%" -T "COMMENT=%comment%" -T "BAND=%albuminterpret%" -T "ALBUMARTIST=%albuminterpret%" -T "COMPOSER=%composer%" %haslyrics%--tag-from-file=LYRICS="%lyricsfile%"%haslyrics% -T "DISCNUMBER=%cdnumber%" -T "TOTALDISCS=%totalcds%" -T "TOTALTRACKS=%numtracks%" %hascover%--picture="%coverfile%"%hascover% %source% -o %dest%

TOC of the extracted CD

Track | Start | Length | Start sector | End sector
---------------------------------------------------------
1 | 0:00.00 | 3:33.15 | 0 | 15989
2 | 3:33.15 | 2:52.30 | 15990 | 28919
3 | 6:25.45 | 2:44.30 | 28920 | 41249
4 | 9:10.00 | 2:28.50 | 41250 | 52399
5 | 11:38.50 | 4:12.38 | 52400 | 71337
6 | 15:51.13 | 3:10.00 | 71338 | 85587
7 | 19:01.13 | 2:55.00 | 85588 | 98712
8 | 21:56.13 | 2:37.22 | 98713 | 110509
9 | 24:33.35 | 2:53.18 | 110510 | 123502
10 | 27:26.53 | 3:05.60 | 123503 | 137437
11 | 30:32.38 | 2:58.62 | 137438 | 150849
12 | 33:31.25 | 3:14.43 | 150850 | 165442
13 | 36:45.68 | 3:02.05 | 165443 | 179097
14 | 39:47.73 | 3:04.15 | 179098 | 192912
15 | 42:52.13 | 3:37.27 | 192913 | 209214
16 | 46:29.40 | 3:11.00 | 209215 | 223539
17 | 49:40.40 | 3:10.13 | 223540 | 237802
18 | 52:50.53 | 2:10.00 | 237803 | 247552
19 | 55:00.53 | 2:28.10 | 247553 | 258662
20 | 57:28.63 | 2:29.37 | 258663 | 269874

Range status and errors

Selected range

Filename C:\Users\Deris\Desktop\kpnemo.eu\ColPortNiganDay\Reader's Digest The World's Most Beautiful Melodies - NIGHT AND DAY,The Great Songs of Cole Porter.wav

Peak level 98.2 %
Extraction speed 3.3 X
Range quality 100.0 %
Test CRC 2E0B3C80
Copy CRC 2E0B3C80
Copy OK

No errors occurred

AccurateRip summary

Track 1 cannot be verified as accurate (confidence 3) [4C8B0E6B], AccurateRip returned [89110254] (AR v2)
Track 2 cannot be verified as accurate (confidence 3) [A6C4F346], AccurateRip returned [5BE43C84] (AR v2)
Track 3 cannot be verified as accurate (confidence 3) [180786F9], AccurateRip returned [8E194A51] (AR v2)
Track 4 cannot be verified as accurate (confidence 3) [E195A6E5], AccurateRip returned [801490E5] (AR v2)
Track 5 cannot be verified as accurate (confidence 3) [DE56865D], AccurateRip returned [BF8C336C] (AR v2)
Track 6 cannot be verified as accurate (confidence 3) [F8997F9E], AccurateRip returned [504DADA4] (AR v2)
Track 7 cannot be verified as accurate (confidence 3) [BABB1675], AccurateRip returned [24C5DD7E] (AR v2)
Track 8 cannot be verified as accurate (confidence 3) [102781C9], AccurateRip returned [315D6B66] (AR v2)
Track 9 cannot be verified as accurate (confidence 3) [3C3A27D4], AccurateRip returned [C051D5A0] (AR v2)
Track 10 cannot be verified as accurate (confidence 3) [A9508F46], AccurateRip returned [1F108559] (AR v2)
Track 11 cannot be verified as accurate (confidence 3) [766F05FE], AccurateRip returned [7EAA93ED] (AR v2)
Track 12 cannot be verified as accurate (confidence 3) [1E1EE214], AccurateRip returned [3D62C067] (AR v2)
Track 13 cannot be verified as accurate (confidence 3) [03378F9B], AccurateRip returned [82FA6F37] (AR v2)
Track 14 cannot be verified as accurate (confidence 3) [777E7741], AccurateRip returned [195A3737] (AR v2)
Track 15 cannot be verified as accurate (confidence 3) [5BEF1F0E], AccurateRip returned [C8EFAC4A] (AR v2)
Track 16 cannot be verified as accurate (confidence 3) [1929DC89], AccurateRip returned [BC8279DE] (AR v2)
Track 17 cannot be verified as accurate (confidence 3) [2414561B], AccurateRip returned [E6854807] (AR v2)
Track 18 cannot be verified as accurate (confidence 3) [52AB060E], AccurateRip returned [50118953] (AR v2)
Track 19 cannot be verified as accurate (confidence 3) [5ECE52E2], AccurateRip returned [1814BA3A] (AR v2)
Track 20 cannot be verified as accurate (confidence 3) [190E6F40], AccurateRip returned [208D0F24] (AR v2)

No tracks could be verified as accurate
You may have a different pressing from the one(s) in the database

End of status report

---- CUETools DB Plugin V2.1.3

[CTDB TOCID: sPOqBGmrKD8Oxqc3uxM7VkdKvR8-] found, Submit result: sPOqBGmrKD8Oxqc3uxM7VkdKvR8- has been confirmed
[e3fe8609] (2/2) Accurately ripped

==== Log checksum 61077D1187D0DB74C02531A68B0AD0B7559582CEFA92BD23C4DA6FEC3AF9335E ====



   Похожие торренты   Размер 
В этой теме нет новых непрочитанных сообщений. 101 Strings Orchestra - Golden Hits: The Sound Of Magnificence Vol.1&2 (2CD) [1993, Instrumental, Easy Listening, FLAC]

413.07 МБ

В этой теме нет новых непрочитанных сообщений. VA - The Sweetest Sounds: Great Songs of Richard Rodgers / The World's Most Beautiful Melodies [1994, Instrumental, Easy Listening, FLAC]

395.65 МБ

В этой теме нет новых непрочитанных сообщений. OST Francis Lai – Love Story (Vinyl rip 24 bit 96 khz) [1984, Soundtrack, Romantic, Easy Listening, FLAC]

600.57 МБ

В этой теме нет новых непрочитанных сообщений. Harry James & His Orchestra - You'll Never Know [1995, Jazz, Instrumental, Easy Listening, Big Band, FLAC]

347.73 МБ

В этой теме нет новых непрочитанных сообщений. VA - Easy Listening: 100 Popular Jazzing [2017, Jazz, Romantic, MP3]

663.63 МБ

В этой теме нет новых непрочитанных сообщений. London Pops Orchestra - Instrumental Gold: 14 Fantastic Hits Of The 50's [1994, Instrumental, Easy Listening, FLAC]

258.99 МБ

В этой теме нет новых непрочитанных сообщений. VA - Classic Easy Listening [2019, Easy listening, popular, MP3]

666.43 МБ




Вы не можете начинать темы
Вы не можете отвечать на сообщения
Вы не можете редактировать свои сообщения
Вы не можете удалять свои сообщения
Вы не можете добавлять вложения

Перейти:  
 Вход
ppkBB3cker v.2 © 2008-2014 @ PPK
[ Time : 0.065s | 16 Queries | GZIP : Off ]

Для правообладателей, рекламодателей и роскомнадзора: rstracker[собачка]yandex.ru
cron