Planets Sun Sun Sun

COVID-19 - Последняя информация о коронавирусе на сайте Минздрава


Статистика раздачи
Автор: PriZraK | Размер: 1.51 ГБ | Добавлен: 19 июн 2019
Скачать торрент
Скачать торрент

СообщениеДобавлено: 19 июн 2019 

Golden Earring - Collected (3CD)

Формат: FLAC, (image + .cue), lossless
Год выпуска: 2009
Страна: Netherlands
Жанр: Rock, Hard Rock
Продолжительность: 03:49:42
Описание:

01. Sound Of The Screaming Day 1967
02. Together We Live Together We Love 1967
03. I've Just Lost Somebody 1968
04. Dong-Dong-Di-Ki-Di-Gi-Dong 1968
05. Just A Little Bit Of Peace In My Heart 1968
06. Where Will I Be 1969
07. Another 45 Miles 1969
08. Back Home 1970
09. Holy Holy Life 1971
10. She Flies On Strange Wings 1971
11. Buddy Joe 1972
12. Stand By Me 1972
13. Radar Love 1973
14. Instant Poetry 1974
15. (Kill Me) Ce Soir 1975
16. Sleepwalkin' 1976
17. Bombay 1976

Exact Audio Copy V1.0 beta 6 from 9. April 2015

EAC extraction logfile from 10. October 2018, 18:37

Golden Earring / Collected [Disc 1]

Used drive : ATAPI iHAS122 C Adapter: 1 ID: 0

Read mode : Secure
Utilize accurate stream : Yes
Defeat audio cache : Yes
Make use of C2 pointers : No

Read offset correction : 6
Overread into Lead-In and Lead-Out : No
Fill up missing offset samples with silence : Yes
Delete leading and trailing silent blocks : No
Null samples used in CRC calculations : Yes
Used interface : Native Win32 interface for Win NT & 2000

Used output format : Internal WAV Routines
Sample format : 44.100 Hz; 16 Bit; Stereo

TOC of the extracted CD

Track | Start | Length | Start sector | End sector
---------------------------------------------------------
1 | 0:00.00 | 2:51.61 | 0 | 12885
2 | 2:51.61 | 3:08.66 | 12886 | 27051
3 | 6:00.52 | 3:07.21 | 27052 | 41097
4 | 9:07.73 | 3:01.67 | 41098 | 54739
5 | 12:09.65 | 5:19.72 | 54740 | 78736
6 | 17:29.62 | 3:53.28 | 78737 | 96239
7 | 21:23.15 | 4:45.29 | 96240 | 117643
8 | 26:08.44 | 3:52.24 | 117644 | 135067
9 | 30:00.68 | 3:56.22 | 135068 | 152789
10 | 33:57.15 | 7:22.25 | 152790 | 185964
11 | 41:19.40 | 3:48.39 | 185965 | 203103
12 | 45:08.04 | 4:31.51 | 203104 | 223479
13 | 49:39.55 | 6:24.20 | 223480 | 252299
14 | 56:04.00 | 4:54.63 | 252300 | 274412
15 | 60:58.63 | 6:18.08 | 274413 | 302770
16 | 67:16.71 | 4:59.59 | 302771 | 325254
17 | 72:16.55 | 3:52.37 | 325255 | 342691

Range status and errors

Selected range

Filename C:\Users\London\Desktop\Golden Earring - Collected [Disc 1].wav

Peak level 99.9 %
Extraction speed 9.9 X
Range quality 100.0 %
Test CRC 44D81F36
Copy CRC 44D81F36
Copy OK

No errors occurred

AccurateRip summary

Track 1 accurately ripped (confidence 19) [EF67783C] (AR v2)
Track 2 accurately ripped (confidence 19) [23ED9CC2] (AR v2)
Track 3 accurately ripped (confidence 19) [51221755] (AR v2)
Track 4 accurately ripped (confidence 19) [AD3C760D] (AR v2)
Track 5 accurately ripped (confidence 19) [2B4B91C7] (AR v2)
Track 6 accurately ripped (confidence 19) [9F6D35E3] (AR v2)
Track 7 accurately ripped (confidence 19) [ACE41FDA] (AR v2)
Track 8 accurately ripped (confidence 19) [9A34B311] (AR v2)
Track 9 accurately ripped (confidence 19) [48F8CD88] (AR v2)
Track 10 accurately ripped (confidence 1 [3D2F04B1] (AR v2)
Track 11 accurately ripped (confidence 19) [CF15B29E] (AR v2)
Track 12 accurately ripped (confidence 20) [604F3E08] (AR v2)
Track 13 accurately ripped (confidence 20) [971DF4C5] (AR v2)
Track 14 accurately ripped (confidence 19) [4E8A8FDD] (AR v2)
Track 15 accurately ripped (confidence 20) [5729552D] (AR v2)
Track 16 accurately ripped (confidence 19) [B9D39FE7] (AR v2)
Track 17 accurately ripped (confidence 20) [E9A10DB9] (AR v2)

All tracks accurately ripped

End of status report

---- CUETools DB Plugin V2.1.6

[CTDB TOCID: tJxWfqNcfqhsRq4_CKsFkrQhCA0-] found
Submit result: tJxWfqNcfqhsRq4_CKsFkrQhCA0- has been confirmed
Track | CTDB Status
1 | (27/27) Accurately ripped
2 | (27/27) Accurately ripped
3 | (27/27) Accurately ripped
4 | (27/27) Accurately ripped
5 | (27/27) Accurately ripped
6 | (27/27) Accurately ripped
7 | (27/27) Accurately ripped
8 | (27/27) Accurately ripped
9 | (27/27) Accurately ripped
10 | (26/27) Accurately ripped
11 | (27/27) Accurately ripped
12 | (27/27) Accurately ripped
13 | (27/27) Accurately ripped
14 | (27/27) Accurately ripped
15 | (27/27) Accurately ripped
16 | (27/27) Accurately ripped
17 | (27/27) Accurately ripped

==== Log checksum 2EC5B39196C0AFF1E7AE8B87A38C2278F995430298A27E39345DEE44887B3F94 ====



01. Just Like Vince Taylor 1973
02. Movin' Down Life 1978
03. Weekend Love 1979
04. I Do Rock' N Roll 1979
05. Long Blond Animal 1980
06. No For An Answer 1980
07. Slow Down 1981
08. Twilight Zone 1982
09. The Devil Made Me Do It 1982
10. When The Lady Smiles 1984
11. Clear Nite, Moonlight 1984
12. Something Heavy Going Down 1984
13. Quiet Eyes 1986
14. Why Do I 1986
15. They Dance 1986
16. My Killer, My Shadow 1988
17. Turn The World Around 1989

Exact Audio Copy V1.0 beta 6 from 9. April 2015

EAC extraction logfile from 10. October 2018, 20:19

Golden Earring / Collected [Disc 2]

Used drive : ATAPI iHAS122 C Adapter: 1 ID: 0

Read mode : Secure
Utilize accurate stream : Yes
Defeat audio cache : Yes
Make use of C2 pointers : No

Read offset correction : 6
Overread into Lead-In and Lead-Out : No
Fill up missing offset samples with silence : Yes
Delete leading and trailing silent blocks : No
Null samples used in CRC calculations : Yes
Used interface : Native Win32 interface for Win NT & 2000

Used output format : Internal WAV Routines
Sample format : 44.100 Hz; 16 Bit; Stereo

TOC of the extracted CD

Track | Start | Length | Start sector | End sector
---------------------------------------------------------
1 | 0:00.00 | 4:35.35 | 0 | 20659
2 | 4:35.35 | 3:34.17 | 20660 | 36726
3 | 8:09.52 | 4:15.39 | 36727 | 55890
4 | 12:25.16 | 3:43.12 | 55891 | 72627
5 | 16:08.28 | 3:37.54 | 72628 | 88956
6 | 19:46.07 | 4:13.37 | 88957 | 107968
7 | 23:59.44 | 4:45.40 | 107969 | 129383
8 | 28:45.09 | 7:54.31 | 129384 | 164964
9 | 36:39.40 | 3:20.24 | 164965 | 179988
10 | 39:59.64 | 5:39.18 | 179989 | 205431
11 | 45:39.07 | 3:25.05 | 205432 | 220811
12 | 49:04.12 | 4:38.08 | 220812 | 241669
13 | 53:42.20 | 4:02.47 | 241670 | 259866
14 | 57:44.67 | 4:44.23 | 259867 | 281189
15 | 62:29.15 | 5:08.44 | 281190 | 304333
16 | 67:37.59 | 4:06.18 | 304334 | 322801
17 | 71:44.02 | 5:31.01 | 322802 | 347627

Range status and errors

Selected range

Filename C:\Users\London\Desktop\Golden Earring - Collected [Disc 2].wav

Peak level 99.9 %
Extraction speed 9.9 X
Range quality 99.9 %
Test CRC E3145478
Copy CRC E3145478
Copy OK

No errors occurred

AccurateRip summary

Track 1 accurately ripped (confidence 17) [EF5A7699] (AR v2)
Track 2 accurately ripped (confidence 17) [E7D91A7B] (AR v2)
Track 3 accurately ripped (confidence 17) [DADE1FE8] (AR v2)
Track 4 accurately ripped (confidence 17) [1A2A8F6E] (AR v2)
Track 5 accurately ripped (confidence 17) [DCA8104D] (AR v2)
Track 6 accurately ripped (confidence 17) [05900FF4] (AR v2)
Track 7 accurately ripped (confidence 17) [23CC86DC] (AR v2)
Track 8 accurately ripped (confidence 17) [CADFC6B7] (AR v2)
Track 9 accurately ripped (confidence 17) [5C8CCC86] (AR v2)
Track 10 accurately ripped (confidence 17) [AB9A18C1] (AR v2)
Track 11 accurately ripped (confidence 17) [AF7F372E] (AR v2)
Track 12 accurately ripped (confidence 17) [B6331A01] (AR v2)
Track 13 accurately ripped (confidence 17) [3F02A55E] (AR v2)
Track 14 accurately ripped (confidence 17) [7C73D2F9] (AR v2)
Track 15 accurately ripped (confidence 17) [B1028FE5] (AR v2)
Track 16 accurately ripped (confidence 17) [C470EAE7] (AR v2)
Track 17 accurately ripped (confidence 17) [53D4DE1C] (AR v2)

All tracks accurately ripped

End of status report

---- CUETools DB Plugin V2.1.6

[CTDB TOCID: xBI4m5atypPME..w_HBkJ3STArE-] found
Submit result: xBI4m5atypPME..w_HBkJ3STArE- has been confirmed
Track | CTDB Status
1 | (26/26) Accurately ripped
2 | (26/26) Accurately ripped
3 | (26/26) Accurately ripped
4 | (26/26) Accurately ripped
5 | (26/26) Accurately ripped
6 | (26/26) Accurately ripped
7 | (26/26) Accurately ripped
8 | (26/26) Accurately ripped
9 | (25/26) Accurately ripped
10 | (25/26) Accurately ripped
11 | (26/26) Accurately ripped
12 | (26/26) Accurately ripped
13 | (26/26) Accurately ripped
14 | (26/26) Accurately ripped
15 | (25/26) Accurately ripped
16 | (26/26) Accurately ripped
17 | (25/26) Accurately ripped

==== Log checksum 88643AAD0CD57FE2C6A69F76CAC6EC614380E8FA816F46C4152A967E00AA6D0A ====



01. Distant Love 1989
02. Going To The Run 1991
03. Temporary Madness 1991
04. Pouring My Heart Out Again 1991
05. I Can't Sleep Without You (Live) 1992
06. As Long As The Wind Blows (Live) 1993
07. Hold Me Now 1994
08. Johnny Make Believe 1994
09. This Wheel's On Fire 1995
10. Burning Stuntman (Live) 1999
11. Paradise In Distress 1999
12. Whisper In A Crowd 1999
13. Miles Away From Nowhere 2000
14. Yes, We're On Fire 2000
15. Albino Moon 2003
16. A Sound I Never Heard 2003
17. Colourblind 2003
18. Angel (Live) 2005

Exact Audio Copy V1.0 beta 6 from 9. April 2015

EAC extraction logfile from 10. October 2018, 22:06

Golden Earring / Collected [Disc 3]

Used drive : ATAPI iHAS122 C Adapter: 1 ID: 0

Read mode : Secure
Utilize accurate stream : Yes
Defeat audio cache : Yes
Make use of C2 pointers : No

Read offset correction : 6
Overread into Lead-In and Lead-Out : No
Fill up missing offset samples with silence : Yes
Delete leading and trailing silent blocks : No
Null samples used in CRC calculations : Yes
Used interface : Native Win32 interface for Win NT & 2000

Used output format : Internal WAV Routines
Sample format : 44.100 Hz; 16 Bit; Stereo

TOC of the extracted CD

Track | Start | Length | Start sector | End sector
---------------------------------------------------------
1 | 0:00.00 | 5:09.26 | 0 | 23200
2 | 5:09.26 | 3:57.42 | 23201 | 41017
3 | 9:06.68 | 3:33.65 | 41018 | 57057
4 | 12:40.58 | 4:02.05 | 57058 | 75212
5 | 16:42.63 | 3:32.24 | 75213 | 91136
6 | 20:15.12 | 4:33.16 | 91137 | 111627
7 | 24:48.28 | 3:43.30 | 111628 | 128382
8 | 28:31.58 | 4:45.05 | 128383 | 149762
9 | 33:16.63 | 4:00.64 | 149763 | 167826
10 | 37:17.52 | 4:04.37 | 167827 | 186163
11 | 41:22.14 | 5:45.24 | 186164 | 212062
12 | 47:07.38 | 3:48.56 | 212063 | 229218
13 | 50:56.19 | 3:26.46 | 229219 | 244714
14 | 54:22.65 | 4:56.07 | 244715 | 266921
15 | 59:18.72 | 3:53.33 | 266922 | 284429
16 | 63:12.30 | 4:44.25 | 284430 | 305754
17 | 67:56.55 | 4:10.61 | 305755 | 324565
18 | 72:07.41 | 4:10.60 | 324566 | 343375

Range status and errors

Selected range

Filename C:\Users\London\Desktop\Golden Earring - Collected [Disc 3].wav

Peak level 99.9 %
Extraction speed 3.8 X
Range quality 100.0 %
Test CRC C9EA1989
Copy CRC C9EA1989
Copy OK

No errors occurred

AccurateRip summary

Track 1 accurately ripped (confidence 1 [ED21C557] (AR v2)
Track 2 accurately ripped (confidence 17) [47AE0A0A] (AR v2)
Track 3 accurately ripped (confidence 17) [B77B767C] (AR v2)
Track 4 accurately ripped (confidence 17) [643CD759] (AR v2)
Track 5 accurately ripped (confidence 17) [A90FD207] (AR v2)
Track 6 accurately ripped (confidence 17) [B28FC0D9] (AR v2)
Track 7 accurately ripped (confidence 17) [534A1CD2] (AR v2)
Track 8 accurately ripped (confidence 17) [FCACE748] (AR v2)
Track 9 accurately ripped (confidence 17) [F0ABD8C4] (AR v2)
Track 10 accurately ripped (confidence 17) [71A499A4] (AR v2)
Track 11 accurately ripped (confidence 17) [4964E3F3] (AR v2)
Track 12 accurately ripped (confidence 17) [11A57A1E] (AR v2)
Track 13 accurately ripped (confidence 17) [B0237B68] (AR v2)
Track 14 accurately ripped (confidence 1 [ED47E58F] (AR v2)
Track 15 accurately ripped (confidence 1 [2DAF754A] (AR v2)
Track 16 accurately ripped (confidence 1 [304AB3C3] (AR v2)
Track 17 accurately ripped (confidence 1 [DE369C90] (AR v2)
Track 18 accurately ripped (confidence 1 [BE68B52E] (AR v2)

All tracks accurately ripped

End of status report

---- CUETools DB Plugin V2.1.6

[CTDB TOCID: gxARXygE8vK5wVbr2W3N96zz28Q-] found
Submit result: gxARXygE8vK5wVbr2W3N96zz28Q- has been confirmed
Track | CTDB Status
1 | (23/23) Accurately ripped
2 | (23/23) Accurately ripped
3 | (23/23) Accurately ripped
4 | (23/23) Accurately ripped
5 | (23/23) Accurately ripped
6 | (23/23) Accurately ripped
7 | (23/23) Accurately ripped
8 | (23/23) Accurately ripped
9 | (23/23) Accurately ripped
10 | (23/23) Accurately ripped
11 | (22/23) Accurately ripped
12 | (23/23) Accurately ripped
13 | (23/23) Accurately ripped
14 | (23/23) Accurately ripped
15 | (23/23) Accurately ripped
16 | (23/23) Accurately ripped
17 | (23/23) Accurately ripped
18 | (23/23) Accurately ripped

==== Log checksum 653EFC5164E64A18672F28999F5AB9C81983D0AE700B49AE26CACBD2F883250E ====



   Похожие торренты   Размер 
В этой теме нет новых непрочитанных сообщений. Thin Lizzy - Collected [2012, Rock, Hard Rock, FLAC]

1.43 ГБ

В этой теме нет новых непрочитанных сообщений. Nazareth - Rare & Unreleased (3CD) [2018, Rock, Hard Rock, Blues Rock, MP3] / Rock/ Punk/ Metal/ Alternative

526.24 МБ

В этой теме нет новых непрочитанных сообщений. Nazareth - Singles, EPs, B-Sides & Bonus Tracks (3CD) [2018, Rock, Hard Rock, Blues Rock, MP3] / Rock/ Punk/ Metal/ Alternative

484.95 МБ

В этой теме нет новых непрочитанных сообщений. The Jimi Hendrix Experience - Electric Ladyland (Deluxe Edition, 3CD) (1968) [2018, Blues Rock, Hard Rock, Psychedelic Rock, MP3] / Rock/ Punk/ Metal/ Alternative

509.92 МБ

В этой теме нет новых непрочитанных сообщений. ZZ Top - Goin' 50 (3CD) [2019, Rock, Blues Rock, Hard Rock, Texas Blues, FLAC]

1.44 ГБ

В этой теме нет новых непрочитанных сообщений. VA - The Many Faces Of Alice Cooper (3CD) [2017, Rock, Hard Rock, FLAC]

1.18 ГБ

В этой теме нет новых непрочитанных сообщений. VA - The Many Faces Of Bon Jovi - A Journey Through The Inner World Of Bon Jovi (3CD) [2018, Rock, Glam Rock, Hard Rock, FLAC]

1.28 ГБ




Вы не можете начинать темы
Вы не можете отвечать на сообщения
Вы не можете редактировать свои сообщения
Вы не можете удалять свои сообщения
Вы не можете добавлять вложения

Перейти:  
 Вход
ppkBB3cker v.2 © 2008-2014 @ PPK
[ Time : 0.023s | 16 Queries | GZIP : Off ]

Для правообладателей, рекламодателей и роскомнадзора: rstracker[собачка]yandex.ru
cron