Planets Sun Sun Sun

COVID-19 - Последняя информация о коронавирусе на сайте Минздрава


Статистика раздачи
Автор: PriZraK | Размер: 924.78 МБ | Добавлен: 19 июн 2019
Скачать торрент
Скачать торрент

СообщениеДобавлено: 19 июн 2019 

Bruce Springsteen – Tunnel Of Love (Vinyl rip 24 bit 96 khz)

Формат: FLAC, tracks, lossless
Год выпуска: 1987
Страна: USA
Жанр: Rock, Pop, Soft Rock, Pop Rock
Продолжительность: 00:45:36
Описание:

A1. Ain't Got You - 2.06
A2. Tougher Than The Rest - 4.35
A3. All That Heaven Will Allow - 2.38
A4. Spare Parts - 3.39
A5. Cautious Man - 3.56
A6. Walk Like A Man - 3.37
B1. Tunnel Of Love - 5.11
B2. Two Faces - 3.00
B3. Brilliant Disguise - 4.15
B4. One Step Up - 4.21
B5. When You're Alone - 3.20
B6. Valentine's Day - 5.10

Доп. информация:
foobar2000 1.1.10 / Dynamic Range Meter 1.1.1
log date: 2019-01-25 09:31:23

--------------------------------------------------------------------------------
Analyzed: ? / ?
--------------------------------------------------------------------------------

DR Peak RMS Duration Track
--------------------------------------------------------------------------------
DR17 -0.26 dB -21.02 dB 2:09 ?-A1. Ain't Got You
DR13 -0.26 dB -15.13 dB 4:35 ?-A2. Tougher Than The Rest
DR13 -0.26 dB -15.01 dB 2:38 ?-A3. All That Heaven Will Allow
DR12 -0.26 dB -14.34 dB 3:38 ?-A4. Spare Parts
DR14 -0.26 dB -18.57 dB 3:56 ?-A5. Cautious Man
DR13 -0.26 dB -15.92 dB 3:34 ?-A6. Walk Like A Man
DR11 -0.26 dB -13.49 dB 5:08 ?-B1. Tunnel Of Love
DR13 -0.26 dB -15.83 dB 2:59 ?-B2. Two Faces
DR13 -0.26 dB -14.62 dB 4:11 ?-B3. Brilliant Disguise
DR12 -0.26 dB -15.01 dB 4:18 ?-B4. One Step Up
DR11 -0.26 dB -14.28 dB 3:21 ?-B5. When You're Alone
DR13 -0.26 dB -16.91 dB 5:09 ?-B6. Valentine's Day
--------------------------------------------------------------------------------

Number of tracks: 12
Official DR value: DR13

Samplerate: 96000 Hz
Channels: 2
Bits per sample: 24
Bitrate: 2719 kbps
Codec: FLAC
================================================================================



   Похожие торренты   Размер 
В этой теме нет новых непрочитанных сообщений. Leo Sayer - 4 Albums (Vinyl rip 24 bit 96 khz) [1974-82, Rock, Pop Rock, Soft Rock, FLAC]

2.96 ГБ

В этой теме нет новых непрочитанных сообщений. Billy Joel - Collection 11 Albums (Vinyl rip 24 bit 96 khz) [1971-89, Rock, Pop, Folk Rock, Soft Rock, FLAC]

10.04 ГБ

В этой теме нет новых непрочитанных сообщений. The Lemon Pipers - Jungle Marmalade (Vinyl rip 24 bit 96 khz) [1968, Rock, Pop, Pop Rock, Psychedelic Rock, FLAC]

864.56 МБ

В этой теме нет новых непрочитанных сообщений. Rod Stewart – The Best Of Rod Stewart (Vinyl rip 24 bit 96 khz) [1977, Rock, Soft Rock, Pop Rock, FLAC]

1.55 ГБ

В этой теме нет новых непрочитанных сообщений. VA - Daydreams - Vol. 2 (Vinyl rip 24 bit 96 khz) [1991, Rock, Pop, Pop Rock, Synth-Pop, FLAC]

1.19 ГБ

В этой теме нет новых непрочитанных сообщений. OST Various Artists - Back To The Future. Music From The Motion Picture Soundtrack (Vinyl rip 24 bit 96 khz) [1985, Rock, Pop, Pop Rock, Synth-Pop, FLAC]

725.27 МБ

В этой теме нет новых непрочитанных сообщений. Simply Red - Stars (Vinyl rip 24 bit 96 khz) [1991, Rock, Funk, Pop, Pop Rock, FLAC]

833.54 МБ




Вы не можете начинать темы
Вы не можете отвечать на сообщения
Вы не можете редактировать свои сообщения
Вы не можете удалять свои сообщения
Вы не можете добавлять вложения

Перейти:  
 Вход
ppkBB3cker v.2 © 2008-2014 @ PPK
[ Time : 0.014s | 16 Queries | GZIP : Off ]

Для правообладателей, рекламодателей и роскомнадзора: rstracker[собачка]yandex.ru
cron