Planets Sun Sun Sun
Статистика раздачи
Автор: PriZraK | Размер: 2.96 ГБ | Добавлен: 19 июн 2019

Скачать торрент
Скачать торрент

СообщениеДобавлено: 19 июн 2019 

Leo Sayer - 4 Albums (Vinyl rip 24 bit 96 khz)

Формат: FLAC, tracks, lossless
Год выпуска: 1974-82
Страна: England
Жанр: Rock, Pop Rock, Soft Rock
Продолжительность: 02:35:53
Описание:
#77

A1. Telepath - 3.12
A2. Train - 4.25
A3. The Bells Of St. Marys - 3.36
A4. One Man Band - 3.35
A5. In My Life - 3.23

B1. When I Came Home This Morning - 5.17
B2. Long Tall Glasses - 3.19
B3. Another Time - 3.26
B4. Solo - 3.59
B5. Giving It All Away - 3.52

foobar2000 1.1.10 / Dynamic Range Meter 1.1.1
log date: 2019-02-09 11:07:31

--------------------------------------------------------------------------------
Analyzed: 1974 / Just A Boy
--------------------------------------------------------------------------------

DR Peak RMS Duration Track
--------------------------------------------------------------------------------
DR11 -0.26 dB -13.60 dB 3:12 ?-A1. Telepath
DR12 -0.26 dB -13.97 dB 4:23 ?-A2. Train
DR11 -0.26 dB -14.50 dB 3:37 ?-A3. The Bells Of St. Marys
DR10 -0.26 dB -12.66 dB 3:32 ?-A4. One Man Band
DR10 -0.26 dB -14.33 dB 3:23 ?-A5. In My Life
DR11 -0.26 dB -14.23 dB 5:15 ?-B1. When I Came Home This Morning
DR12 -0.26 dB -14.38 dB 3:05 ?-B2. Long Tall Glasses
DR10 -0.26 dB -15.05 dB 3:20 ?-B3. Another Time
DR11 -0.26 dB -13.66 dB 3:57 ?-B4. Solo
DR12 -0.26 dB -16.23 dB 3:53 ?-B5. Giving It All Away
--------------------------------------------------------------------------------

Number of tracks: 10
Official DR value: DR11

Samplerate: 96000 Hz
Channels: 2
Bits per sample: 24
Bitrate: 2575 kbps
Codec: FLAC
================================================================================

#77

A1. Bedsitter Land - 4.07
A2. Unlucky In Love - 3.27
A3. Last Gig Of Johnny B Goode - 3.49
A4. On The Old Dirt Road - 4.01
A5. I Will Not Stop Fighting - 5.00

B1. Moonlighting - 4.13
B2. Streets Of Your Town - 3.02
B3. The Kids Grown Up - 2.:52
B4. Only Dreaming - 5.15
B5. Another Year - 3.13

foobar2000 1.1.10 / Dynamic Range Meter 1.1.1
log date: 2019-02-09 11:18:54

--------------------------------------------------------------------------------
Analyzed: 1975 / Another Year
--------------------------------------------------------------------------------

DR Peak RMS Duration Track
--------------------------------------------------------------------------------
DR10 -0.26 dB -15.13 dB 4:01 ?-A1. Bedsitter Land
DR9 -0.26 dB -12.81 dB 3:24 ?-A2. Unlucky In Love
DR11 -0.26 dB -14.12 dB 3:45 ?-A3. Last Gig Of Johnny B Goode
DR11 -0.26 dB -13.60 dB 3:57 ?-A4. On The Old Dirt Road
DR13 -0.26 dB -18.96 dB 4:55 ?-A5. I Will Not Stop Fighting
DR11 -0.26 dB -13.61 dB 4:11 ?-B1. Moonlighting
DR11 -0.26 dB -14.83 dB 2:59 ?-B2. Streets Of Your Town
DR15 -0.26 dB -16.18 dB 2:48 ?-B3. The Kids Grown Up
DR10 -0.26 dB -15.14 dB 5:13 ?-B4. Only Dreaming
DR13 -0.26 dB -17.61 dB 3:06 ?-B5. Another Year
--------------------------------------------------------------------------------

Number of tracks: 10
Official DR value: DR11

Samplerate: 96000 Hz
Channels: 2
Bits per sample: 24
Bitrate: 2560 kbps
Codec: FLAC
================================================================================

#77

A1. Time Ran Out On You - 3.50
A2. Where Did We Go Wrong - 3.55
A3. You Win - I Lose - Piano – Nick Glennie-Smith - 3.43
A4. More Than I Can Say - 3.41
A5. Millionaire - 4.22

B1. Once In A While - 3.30
B2. Living In A Fantasy - 4.25
B3. She's Not Coming Back - 3.50
B4. Let Me Know - 3.55
B5. Only Foolin' - 3.40

foobar2000 1.1.10 / Dynamic Range Meter 1.1.1
log date: 2019-02-11 06:52:20

--------------------------------------------------------------------------------
Analyzed: ? / ?
--------------------------------------------------------------------------------

DR Peak RMS Duration Track
--------------------------------------------------------------------------------
DR14 -0.26 dB -16.83 dB 3:47 ?-A1. Time Ran Out On You
DR14 -0.26 dB -16.76 dB 3:54 ?-A2. Where Did We Go Wrong
DR14 -0.26 dB -16.95 dB 3:40 ?-A3. You Win - I Lose
DR13 -0.26 dB -16.90 dB 3:39 ?-A4. More Than I Can Say
DR15 -0.26 dB -17.79 dB 4:19 ?-A5. Millionaire
DR15 -0.26 dB -17.40 dB 3:32 ?-B1. Once In A While
DR14 -0.26 dB -17.28 dB 4:23 ?-B2. Living In A Fantasy
DR14 -0.26 dB -16.56 dB 3:50 ?-B3. She's Not Coming Back
DR13 -0.26 dB -15.77 dB 3:57 ?-B4. Let Me Know
DR13 -0.26 dB -16.58 dB 3:33 ?-B5. Only Foolin'
--------------------------------------------------------------------------------

Number of tracks: 10
Official DR value: DR14

Samplerate: 96000 Hz
Channels: 2
Bits per sample: 24
Bitrate: 2750 kbps
Codec: FLAC
================================================================================

#77

A1. Heart (Stop Beating In Time) - 4.35
A2. Paris Dies In The Morning - 3.53
A3. Have You Ever Been In Love? - 3.45
A4. Rumours - 3.55
A5. Heroes - 4.21

B1. 'Til You Let Your Heart Win - 4.41
B2. The End Of The Game - 3.28
B3. Wondering Where The Lions Are - 3.28
B4. We've Got Ourselves In Love - 3.54
B5. World Radio - 5.26

foobar2000 1.1.10 / Dynamic Range Meter 1.1.1
log date: 2019-02-11 09:36:16

--------------------------------------------------------------------------------
Analyzed: ? / ?
--------------------------------------------------------------------------------

DR Peak RMS Duration Track
--------------------------------------------------------------------------------
DR13 -0.26 dB -15.80 dB 4:33 ?-A1. Heart (Stop Beating In Time)
DR12 -0.26 dB -15.53 dB 3:53 ?-A2. Paris Dies In The Morning
DR13 -0.26 dB -17.32 dB 3:46 ?-A3. Have You Ever Been In Love
DR14 -0.26 dB -16.33 dB 3:56 ?-A4. Rumours
DR13 -0.26 dB -16.44 dB 4:20 ?-A5. Heroes
DR12 -0.26 dB -16.30 dB 4:42 ?-B1. 'Til You Let Your Heart Win
DR13 -0.26 dB -16.94 dB 3:25 ?-B2. The End Of The Game
DR14 -0.26 dB -16.83 dB 3:28 ?-B3. Wondering Where The Lions Are
DR15 -0.26 dB -17.43 dB 3:55 ?-B4. We've Got Ourselves In Love
DR13 -0.26 dB -17.93 dB 5:24 ?-B5. World Radio
--------------------------------------------------------------------------------

Number of tracks: 10
Official DR value: DR13

Samplerate: 96000 Hz
Channels: 2
Bits per sample: 24
Bitrate: 2656 kbps
Codec: FLAC
================================================================================



   Похожие торренты   Размер 
В этой теме нет новых непрочитанных сообщений. Billy Joel - Collection 11 Albums (Vinyl rip 24 bit 96 khz) [1971-89, Rock, Pop, Folk Rock, Soft Rock, FLAC]

10.04 ГБ

В этой теме нет новых непрочитанных сообщений. Bruce Springsteen – Tunnel Of Love (Vinyl rip 24 bit 96 khz) [1987, Rock, Pop, Soft Rock, Pop Rock, FLAC]

924.78 МБ

В этой теме нет новых непрочитанных сообщений. The Tremeloes – Shiner (Vinyl rip 24 bit 96 khz) [1974, Rock, Pop Rock, FLAC]

690.25 МБ

В этой теме нет новых непрочитанных сообщений. Rod Stewart – The Best Of Rod Stewart (Vinyl rip 24 bit 96 khz) [1977, Rock, Soft Rock, Pop Rock, FLAC]

1.55 ГБ

В этой теме нет новых непрочитанных сообщений. The Lemon Pipers - Jungle Marmalade (Vinyl rip 24 bit 96 khz) [1968, Rock, Pop, Pop Rock, Psychedelic Rock, FLAC]

864.56 МБ

В этой теме нет новых непрочитанных сообщений. Linda Ronstadt – Greatest Hits (Vinyl rip 24 bit 96 khz) [1976, Rock, Country Rock, Pop Rock, FLAC]

756.57 МБ

В этой теме нет новых непрочитанных сообщений. Steve Miller Band – Anthology (Vinyl rip 24 bit 96 khz) [1972, Rock, Blues Rock, Pop Rock, FLAC]

1.26 ГБ




Вы не можете начинать темы
Вы не можете отвечать на сообщения
Вы не можете редактировать свои сообщения
Вы не можете удалять свои сообщения
Вы не можете добавлять вложения

Перейти:  
 Вход
ppkBB3cker v.2 © 2008-2014 @ PPK
[ Time : 0.016s | 16 Queries | GZIP : Off ]

Для правообладателей, рекламодателей и роскомнадзора: rstracker[собачка]yandex.ru
cron