img
Planets Sun Sun Sun
Статистика раздачи
Автор: PriZraK | Размер: 714.74 МБ | Добавлен: 19 июн 2019
Скачать торрент
Скачать торрент

СообщениеДобавлено: 19 июн 2019 

Владимир Асмолов - Лучшие песни

Формат: FLAC, (image + .cue), lossless
Год выпуска: 2008
Страна: Россия
Жанр: Шансон
Продолжительность: 01:07:33
Описание:

01. Одиночество
02. Поезд любви
03. Клюква в сахаре
04. Девочка по вызову души
05. Одно целое
06. Женщина-ночь
07. Майами
08. Люби меня медленно
09. Чёрный ворон
10. Как долго
11. Холодно
12. Незнакомка
13. Мишель
14. Период охлаждения
15. Вечер жизни
16. Спелая вишня
17. Рядом быть хочу
18. Зона турбулентности


Доп. информация:

Савельев Владимир Павлович, творческий псевдоним Владимир Асмолов, родился 15 ноября 1946 года в городе Донецке. После окончания школы, служил в рядах Советской Армии в относительно спокойное время между Карибским и Афганским конфликтами. Не сидел, не привлекался, не участвовал. В 1973 году окончил филологический факультет Донецкого государственного университета. С 1975 года живет в Москве. Стихи начал писать рано и хотя музыкального образования не получил, мелодии своих песен пишет сам.

Exact Audio Copy V1.0 beta 2 from 29. April 2011

Отчёт EAC об извлечении, выполненном 2. мая 2012, 7:14

Владимир Асмолов / Серия «РУССКИЕ ШАНСОНЬЕ» - Лучшие песни

Дисковод: Optiarc DVD RW AD-7190A Adapter: 0 ID: 0

Режим чтения : Достоверность
Использование точного потока : Да
Отключение кэша аудио : Да
Использование указателей C2 : Нет

Коррекция смещения при чтении : 6
Способность читать области Lead-in и Lead-out : Нет
Заполнение пропущенных сэмплов тишиной : Да
Удаление блоков с тишиной в начале и конце : Нет
При вычислениях CRC использовались нулевые сэмплы : Да
Интерфейс : Встроенный Win32-интерфейс для Win NT/2000

Выходной формат : Внутренние WAV-операции
Формат сэмплов : 44.100 Гц; 16 бит; стерео

TOC извлечённого CD

Трек | Старт | Длительность | Начальный сектор | Конечный сектор
---------------------------------------------------------------------
1 | 0:00.00 | 3:21.66 | 0 | 15140
2 | 3:21.66 | 4:23.21 | 15141 | 34886
3 | 7:45.12 | 3:46.44 | 34887 | 51880
4 | 11:31.56 | 3:46.11 | 51881 | 68841
5 | 15:17.67 | 3:43.44 | 68842 | 85610
6 | 19:01.36 | 4:05.16 | 85611 | 104001
7 | 23:06.52 | 3:35.72 | 104002 | 120198
8 | 26:42.49 | 3:32.56 | 120199 | 136154
9 | 30:15.30 | 3:18.42 | 136155 | 151046
10 | 33:33.72 | 4:00.24 | 151047 | 169070
11 | 37:34.21 | 3:10.09 | 169071 | 183329
12 | 40:44.30 | 3:38.25 | 183330 | 199704
13 | 44:22.55 | 4:15.08 | 199705 | 218837
14 | 48:37.63 | 3:36.50 | 218838 | 235087
15 | 52:14.38 | 4:14.14 | 235088 | 254151
16 | 56:28.52 | 3:09.28 | 254152 | 268354
17 | 59:38.05 | 3:56.25 | 268355 | 286079
18 | 63:34.30 | 3:58.65 | 286080 | 303994

Характеристики диапазона извлечения и сообщения об ошибках

Выбранный диапазон

Имя файла J:\ШАНСОН\SCHANSON [SBORNIKI] LOSSLESS\СЕРИЯ «РУССКИЕ ШАНСОНЬЕ»\2008 - АСМОЛОВ ВЛАДИМИР [Лучшие песни]\Владимир Асмолов - Серия «РУССКИЕ ШАНСОНЬЕ» - Лучшие песни.wav

Пиковый уровень 100.0 %
Скорость извлечения 7.3 X
Качество диапазона 100.0 %
CRC теста F8B0D1DD
CRC копии F8B0D1DD
Копирование... OK

Ошибок не произошло

AccurateRip: сводка

Трек 1 отсутствует в базе данных
Трек 2 отсутствует в базе данных
Трек 3 отсутствует в базе данных
Трек 4 отсутствует в базе данных
Трек 5 отсутствует в базе данных
Трек 6 отсутствует в базе данных
Трек 7 отсутствует в базе данных
Трек 8 отсутствует в базе данных
Трек 9 отсутствует в базе данных
Трек 10 отсутствует в базе данных
Трек 11 отсутствует в базе данных
Трек 12 отсутствует в базе данных
Трек 13 отсутствует в базе данных
Трек 14 отсутствует в базе данных
Трек 15 отсутствует в базе данных
Трек 16 отсутствует в базе данных
Трек 17 отсутствует в базе данных
Трек 18 отсутствует в базе данных

Ни одного трека нет в базе AccurateRip

Конец отчёта

==== Контрольная сумма отчёта D9B7E5AE8D57A0C5A4627BAAB026B1CE2C20A09C8BE52C651C03D26C814F4AD0 ====




   Похожие торренты   Размер 
В этой теме нет новых непрочитанных сообщений. Владимир Асмолов - Осень жизни (Лучшие песни) [2002, Шансон, FLAC]

510.44 МБ

В этой теме нет новых непрочитанных сообщений. Владимир Утесов - Лучшие песни [2008, Шансон, FLAC]

372.19 МБ

В этой теме нет новых непрочитанных сообщений. Владимир Асмолов - Черновики любви [2007, Шансон, MP3]

111.34 МБ

В этой теме нет новых непрочитанных сообщений. Владимир Асмолов - Звездная серия [2002, Шансон, MP3]

166.43 МБ

В этой теме нет новых непрочитанных сообщений. Владимир Асмолов - Новое и лучшее [2000, Шансон, MP3]

197.28 МБ

В этой теме нет новых непрочитанных сообщений. Владимир Асмолов - Легенды Русского шансона (Том 15) [2000, Шансон, MP3]

139.4 МБ

В этой теме нет новых непрочитанных сообщений. Владимир Асмолов - MP3 Play (2014) MP3

707.59 МБ




Вы не можете начинать темы
Вы не можете отвечать на сообщения
Вы не можете редактировать свои сообщения
Вы не можете удалять свои сообщения
Вы не можете добавлять вложения

Перейти:  
 Вход
ppkBB3cker v.2 © 2008-2014 @ PPK
[ Time : 0.026s | 17 Queries | GZIP : Off ]

Для правообладателей, рекламодателей и роскомнадзора: rstracker[собачка]yandex.ru
cron