img
Planets Sun Sun Sun
Статистика раздачи
Автор: PriZraK | Размер: 372.19 МБ | Добавлен: 19 июн 2019
Скачать торрент
Скачать торрент

СообщениеДобавлено: 19 июн 2019 

Владимир Утесов - Лучшие песни

Формат: FLAC, (image + .cue), lossless
Год выпуска: 2008
Страна: Россия
Жанр: Шансон
Продолжительность: 00:49:01
Описание:

01. Пять минут
02. Шереметьево
03. Русская душа
04. Ах, море Черное
05. Куровское
06. Я за волей
07. Спасибо друзьям
08. Курортный роман
09. Ништяк, браток
10. Краденое счастье
11. Улетаю
12. Бараночка


Доп. информация:

Владимир Утёсов родился 15 июня 1961г. в Воронеже в семье артистов и музыкантов. В 1999 году записал свой Первый альбом «Белые березы», туда вошло 12 песен совершенно разных по сюжету, но в тоже время одинаковых по энергетике... В 2002 году вышел Второй альбом «Бубновый туз» в него вошли некоторые старые и новые песни. В 2003 году был издан Третий альбом «Гражданин судья» В него вошли совершенно новые песни, часть из которых написали для него друзья. В 2004 году появился Четвертый альбом Спасибо друзьям». В мае 2005г. альбом "Улетаю".

Exact Audio Copy V0.99 prebeta 4 from 23. January 2008

Отчёт EAC об извлечении, выполненном 4. мая 2009, 4:36

Владимир Утёсов / Лучшие песни

Дисковод: TEAC DV-W520GM Adapter: 4 ID: 2

Режим чтения : Достоверность
Использование точного потока : Да
Отключение кэша аудио : Да
Использование указателей C2 : Нет

Коррекция смещения при чтении : 6
Способность читать области Lead-in и Lead-out : Нет
Заполнение пропущенных сэмплов тишиной : Да
Удаление блоков с тишиной в начале и конце : Нет
При вычислениях CRC использовались нулевые сэмплы : Да
Интерфейс : Установленный внешний ASPI-интерфейс

Выходной формат : Внутренние WAV-операции
Формат сэмплов : 44.100 Гц; 16 бит; стерео

TOC извлечённого CD

Трек | Старт | Длительность | Начальный сектор | Конечный сектор
---------------------------------------------------------------------
1 | 0:00.00 | 4:04.68 | 0 | 18367
2 | 4:04.68 | 4:02.01 | 18368 | 36518
3 | 8:06.69 | 3:34.15 | 36519 | 52583
4 | 11:41.09 | 3:47.33 | 52584 | 69641
5 | 15:28.42 | 3:27.50 | 69642 | 85216
6 | 18:56.17 | 3:53.51 | 85217 | 102742
7 | 22:49.68 | 4:06.08 | 102743 | 121200
8 | 26:56.01 | 4:26.29 | 121201 | 141179
9 | 31:22.30 | 3:28.60 | 141180 | 156839
10 | 34:51.15 | 5:31.67 | 156840 | 181731
11 | 40:23.07 | 4:55.26 | 181732 | 203882
12 | 45:18.33 | 3:42.42 | 203883 | 220574

Характеристики диапазона извлечения и сообщения об ошибках

Выбранный диапазон

Имя файла T:\SHANSON\Утёсов Владимир\2008 - Владимир Утесов - Лучшие песни\Владимир Утёсов - Лучшие песни.wav

Пиковый уровень 100.0 %
Качество диапазона 100.0 %
CRC теста 410EB4CB
CRC копии 410EB4CB
Копирование... OK

Ошибок не произошло

AccurateRip: сводка

Трек 1 нет в базе данных
Трек 2 нет в базе данных
Трек 3 нет в базе данных
Трек 4 нет в базе данных
Трек 5 нет в базе данных
Трек 6 нет в базе данных
Трек 7 нет в базе данных
Трек 8 нет в базе данных
Трек 9 нет в базе данных
Трек 10 нет в базе данных
Трек 11 нет в базе данных
Трек 12 нет в базе данных

Ни одного трека нет в базе AccurateRip

Конец отчёта




   Похожие торренты   Размер 
В этой теме нет новых непрочитанных сообщений. Владимир Асмолов - Лучшие песни [2008, Шансон, FLAC]

714.74 МБ

В этой теме нет новых непрочитанных сообщений. Владимир Утёсов - The Best [2007, Шансон, MP3]

171.95 МБ

В этой теме нет новых непрочитанных сообщений. Владимир Утёсов - Легенды русского шансона [2017, Шансон, MP3]

174.05 МБ

В этой теме нет новых непрочитанных сообщений. Владимир Асмолов - Осень жизни (Лучшие песни) [2002, Шансон, FLAC]

510.44 МБ

В этой теме нет новых непрочитанных сообщений. Леонид Утёсов - Избранные песни (1930-1970) FLAC от DON Music

410.98 МБ

В этой теме нет новых непрочитанных сообщений. Владимир Шишов - Однажды в пятницу (Platinum Шансон. Любимые Хиты) [2008, Шансон, MP3]

189.11 МБ

В этой теме нет новых непрочитанных сообщений. Сборник - Лучшие песни радио. Русский шансон (8) [2008, Шансон, MP3]

184.95 МБ




Вы не можете начинать темы
Вы не можете отвечать на сообщения
Вы не можете редактировать свои сообщения
Вы не можете удалять свои сообщения
Вы не можете добавлять вложения

Перейти:  
 Вход
ppkBB3cker v.2 © 2008-2014 @ PPK
[ Time : 0.021s | 17 Queries | GZIP : Off ]

Для правообладателей, рекламодателей и роскомнадзора: rstracker[собачка]yandex.ru
cron