Planets Sun Sun Sun

COVID-19 - Последняя информация о коронавирусе на сайте Минздрава


Статистика раздачи
Автор: mari | Размер: 490.6 МБ | Добавлен: 28 окт 2019


Скачать торрент
Скачать торрент

СообщениеДобавлено: 28 окт 2019 

Joe Bonamassa - Live At The Sydney Opera House

Формат: FLAC, (image + .cue), lossless
Год выпуска: 2019
Страна: USA
Жанр: Blues Rock
Продолжительность: 01:13:03
Описание:

1. This Train (08:25)
2. Mountain Climbing (06:21)
3. Drive (07:27)
4. Love Ain''t A Love Song (10:34)
5. How Deep This River Runs (08:09)
6. Mainline Florida (07:29)
7. The Valley Runs Low (07:21)
8. Blues Of Desperation (08:50)
9. No Place For The Lonely (08:24)

Доп. информация:
Exact Audio Copy V1.3 from 2. September 2016

EAC extraction logfile from 26. October 2019, 14:49

Joe Bonamassa / Live At The Sydney Opera House

Used drive : ATAPI iHAS122 C Adapter: 1 ID: 0

Read mode : Secure
Utilize accurate stream : Yes
Defeat audio cache : Yes
Make use of C2 pointers : No

Read offset correction : 6
Overread into Lead-In and Lead-Out : No
Fill up missing offset samples with silence : Yes
Delete leading and trailing silent blocks : No
Null samples used in CRC calculations : Yes
Used interface : Native Win32 interface for Win NT & 2000

Used output format : Internal WAV Routines
Sample format : 44.100 Hz; 16 Bit; Stereo

TOC of the extracted CD

Track | Start | Length | Start sector | End sector
---------------------------------------------------------
1 | 0:00.00 | 8:25.54 | 0 | 37928
2 | 8:25.54 | 6:21.06 | 37929 | 66509
3 | 14:46.60 | 7:27.27 | 66510 | 100061
4 | 22:14.12 | 10:33.41 | 100062 | 147577
5 | 32:47.53 | 8:09.12 | 147578 | 184264
6 | 40:56.65 | 7:28.51 | 184265 | 217915
7 | 48:25.41 | 7:20.62 | 217916 | 250977
8 | 55:46.28 | 8:50.09 | 250978 | 290736
9 | 64:36.37 | 8:26.45 | 290737 | 328731

Range status and errors

Selected range

Filename C:\Users\44740\Desktop\Joe Bonamassa - Live At The Sydney Opera House.wav

Peak level 100.0 %
Extraction speed 3.7 X
Range quality 100.0 %
Test CRC E1475223
Copy CRC E1475223
Copy OK

No errors occurred

AccurateRip summary

Track 1 not present in database
Track 2 not present in database
Track 3 not present in database
Track 4 not present in database
Track 5 not present in database
Track 6 not present in database
Track 7 not present in database
Track 8 not present in database
Track 9 not present in database

None of the tracks are present in the AccurateRip database

End of status report

---- CUETools DB Plugin V2.1.6

[CTDB TOCID: rzGWqYOhDWwlfzc_tnFRAIpZY8E-] found
Submit result: rzGWqYOhDWwlfzc_tnFRAIpZY8E- has been confirmed
Track | CTDB Status
1 | ( 5/10) Accurately ripped
2 | ( 5/10) Accurately ripped
3 | ( 5/10) Accurately ripped
4 | ( 5/10) Accurately ripped
5 | ( 5/10) Accurately ripped
6 | ( 5/10) Accurately ripped
7 | ( 5/10) Accurately ripped
8 | ( 5/10) Accurately ripped
9 | ( 5/10) Accurately ripped

==== Log checksum 4D7E6C2D0082911AB905F4349B0B5B725848C7F64C98AD673576FEFFB917FA7F ====



   Похожие торренты   Размер 
В этой теме нет новых непрочитанных сообщений. Beth Hart & Joe Bonamassa - Black Coffee [2019, Blues-Rock, MP3]

104.24 МБ

В этой теме нет новых непрочитанных сообщений. Joe Bonamassa - 30 most slow Blues [2017, Blues, Blues Rock, MP3]

393.3 МБ

В этой теме нет новых непрочитанных сообщений. Beth Hart and Joe Bonamassa - Bootleg collection [3 CD] [2013, Blues, Blues Rock, MP3]

754.29 МБ

В этой теме нет новых непрочитанных сообщений. Joe Bonamassa - Blues Of Desperation (2016) FLAC

413.64 МБ

В этой теме нет новых непрочитанных сообщений. Joe Bonamassa - Blues Of Desperation (2016) FLAC

413.5 МБ

В этой теме нет новых непрочитанных сообщений. Joe Bonamassa - Live at Radio City Music Hall (2015) FLAC

484.64 МБ

В этой теме нет новых непрочитанных сообщений. Joe Bonamassa - Live at the Greek Theatre (2016) BDRip-AVC

1.84 ГБ




Вы не можете начинать темы
Вы не можете отвечать на сообщения
Вы не можете редактировать свои сообщения
Вы не можете удалять свои сообщения
Вы не можете добавлять вложения

Перейти:  
 Вход
ppkBB3cker v.2 © 2008-2014 @ PPK
[ Time : 0.022s | 17 Queries | GZIP : Off ]

Для правообладателей, рекламодателей и роскомнадзора: rstracker[собачка]yandex.ru
cron