img
Planets Sun Sun Sun
Статистика раздачи
Автор: mari | Размер: 245.75 МБ | Добавлен: 06 ноя 2019
Скачать торрент
Скачать торрент

СообщениеДобавлено: 06 ноя 2019 

Ringo Starr - What’s My Name

Формат: FLAC, (image + .cue), lossless
Год выпуска: 2019
Страна: England
Жанр: Rock
Продолжительность: 00:34:50
Описание:

01. Gotta Get Up To Get Down
02. It''s Not Love That You Want
03. Grow Old with Me
04. Magic
05. Money
06. Better Days
07. Life Is Good
08. Thank God for Music
09. Send Love Spread Peace
10. What’s My Name
Доп. информация:
Exact Audio Copy V1.3 from 2. September 2016

EAC extraction logfile from 30. October 2019, 12:25

Ringo Starr / What’s My Name

Used drive : PLEXTOR BD-R PX-LB950SA Adapter: 1 ID: 1

Read mode : Secure
Utilize accurate stream : Yes
Defeat audio cache : Yes
Make use of C2 pointers : No

Read offset correction : 6
Overread into Lead-In and Lead-Out : No
Fill up missing offset samples with silence : Yes
Delete leading and trailing silent blocks : No
Null samples used in CRC calculations : Yes
Used interface : Native Win32 interface for Win NT & 2000

Used output format : User Defined Encoder
Selected bitrate : 128 kBit/s
Quality : High
Add ID3 tag : No
Command line compressor : C:\Program Files (x86)\Exact Audio Copy\Flac\flac.exe
Additional command line options : -V -8 -T "Date=%year%" -T "Genre=%genre%" %source%

TOC of the extracted CD

Track | Start | Length | Start sector | End sector
---------------------------------------------------------
1 | 0:00.00 | 4:20.67 | 0 | 19566
2 | 4:20.67 | 3:34.73 | 19567 | 35689
3 | 7:55.65 | 3:20.11 | 35690 | 50700
4 | 11:16.01 | 4:09.72 | 50701 | 69447
5 | 15:25.73 | 2:58.13 | 69448 | 82810
6 | 18:24.11 | 2:49.14 | 82811 | 95499
7 | 21:13.25 | 3:12.48 | 95500 | 109947
8 | 24:25.73 | 3:39.62 | 109948 | 126434
9 | 28:05.60 | 2:59.11 | 126435 | 139870
10 | 31:04.71 | 3:45.17 | 139871 | 156762

Range status and errors

Selected range

Filename C:\Ringo Starr - What''s My Name - 2019\Ringo Starr - What’s My Name.wav

Peak level 98.8 %
Extraction speed 6.5 X
Range quality 100.0 %
Test CRC A4798F07
Copy CRC A4798F07
Copy OK

No errors occurred

AccurateRip summary

Track 1 not present in database
Track 2 not present in database
Track 3 not present in database
Track 4 not present in database
Track 5 not present in database
Track 6 not present in database
Track 7 not present in database
Track 8 not present in database
Track 9 not present in database
Track 10 not present in database

None of the tracks are present in the AccurateRip database

End of status report

---- CUETools DB Plugin V2.1.6

[CTDB TOCID: Z4jPa1qNtiTVd1bB3EGbujWCv6I-] found
Submit result: Z4jPa1qNtiTVd1bB3EGbujWCv6I- has been confirmed
Track | CTDB Status
1 | (23/23) Accurately ripped
2 | (23/23) Accurately ripped
3 | (23/23) Accurately ripped
4 | (23/23) Accurately ripped
5 | (23/23) Accurately ripped
6 | (23/23) Accurately ripped
7 | (23/23) Accurately ripped
8 | (23/23) Accurately ripped
9 | (23/23) Accurately ripped
10 | (23/23) Accurately ripped

==== Log checksum 8B2D2B3BE4E6AC7A7DEACCFF56DDBB7D1D49845E5DEFE5B8A2330CFD1B8C153B ====




   Похожие торренты   Размер 
В этой теме нет новых непрочитанных сообщений. Ringo Starr - What’s My Name [2019, Classic Rock, MP3] / Rock/ Punk/ Metal/ Alternative

79.78 МБ

В этой теме нет новых непрочитанных сообщений. Ringo Starr - The Gold Collection (2012) FLAC

1.56 ГБ

В этой теме нет новых непрочитанных сообщений. Ringo Starr - Postcards From Paradise (2015) FLAC

298.21 МБ

В этой теме нет новых непрочитанных сообщений. Ringo Starr - Postcards From Paradise (2015) FLAC

312.27 МБ

В этой теме нет новых непрочитанных сообщений. Ringo Starr - Give More Love (2017) FLAC

351.51 МБ

В этой теме нет новых непрочитанных сообщений. Ringo Starr - Postcards From Paradise (2015) MP3

101.67 МБ

В этой теме нет новых непрочитанных сообщений. Ringo Starr - Give More Love (2017) MP3

122.01 МБ




Вы не можете начинать темы
Вы не можете отвечать на сообщения
Вы не можете редактировать свои сообщения
Вы не можете удалять свои сообщения
Вы не можете добавлять вложения

Перейти:  
 Вход
ppkBB3cker v.2 © 2008-2014 @ PPK
[ Time : 0.020s | 17 Queries | GZIP : Off ]

Для правообладателей, рекламодателей и роскомнадзора: rstracker[собачка]yandex.ru
cron