img
Planets Sun Sun Sun
Статистика раздачи
Автор: mari | Размер: 257.52 МБ | Добавлен: 06 ноя 2019
Скачать торрент
Скачать торрент

СообщениеДобавлено: 06 ноя 2019 

Rockets - Wonderland

Формат: FLAC, (tracks + .cue), lossless
Год выпуска: 2019
Страна: France
Жанр: Electronic Rock, Dance-Pop, Synth-Pop
Продолжительность: 00:41:59
Описание:

01. Wonderland (Album Version)
02. Kids From Mars
03. Heaven
04. We Are One
05. Strange People
06. Rock ''N Roll Lose
07. Get It On
08. Nuclear Fallout
09. The One
10. Doot Doot
11. Wonderland

Доп. информация:
Exact Audio Copy V1.3 from 2. September 2016

EAC extraction logfile from 16. October 2019, 10:01

Rockets / Wonderland

Used drive : ASUS DRW-24D5MT Adapter: 1 ID: 0

Read mode : Secure
Utilize accurate stream : Yes
Defeat audio cache : Yes
Make use of C2 pointers : No

Read offset correction : 6
Overread into Lead-In and Lead-Out : No
Fill up missing offset samples with silence : Yes
Delete leading and trailing silent blocks : No
Null samples used in CRC calculations : Yes
Used interface : Native Win32 interface for Win NT & 2000
Gap handling : Appended to previous track

Used output format : User Defined Encoder
Selected bitrate : 1024 kBit/s
Quality : High
Add ID3 tag : No
Command line compressor : C:\Program Files (x86)\Exact Audio Copy\Flac\flac.exe
Additional command line options : -V -8 -T "Genre=%genre%" -T "Artist=%artist%" -T "Title=%title%" -T "Album=%albumtitle%" -T "Date=%year%" -T "Tracknumber=%tracknr%" -T "Comment=%comment%" %source%

TOC of the extracted CD

Track | Start | Length | Start sector | End sector
---------------------------------------------------------
1 | 0:00.00 | 4:45.11 | 0 | 21385
2 | 4:45.11 | 3:42.66 | 21386 | 38101
3 | 8:28.02 | 3:32.00 | 38102 | 54001
4 | 12:00.02 | 3:34.29 | 54002 | 70080
5 | 15:34.31 | 3:32.28 | 70081 | 86008
6 | 19:06.59 | 3:22.00 | 86009 | 101158
7 | 22:28.59 | 3:04.71 | 101159 | 115029
8 | 25:33.55 | 4:57.37 | 115030 | 137341
9 | 30:31.17 | 3:17.00 | 137342 | 152116
10 | 33:48.17 | 4:36.73 | 152117 | 172889
11 | 38:25.15 | 3:33.46 | 172890 | 188910

Track 1

Filename H:\Sket4er\Rockets – Wonderland 2019\01 Wonderland (Album Version).wav

Pre-gap length 0:00:02.00

Peak level 96.6 %
Extraction speed 1.2 X
Track quality 100.0 %
Test CRC 6C89A601
Copy CRC 6C89A601
Cannot be verified as accurate (confidence 1) [9BE1A0EE], AccurateRip returned [E61510D5] (AR v2)
Copy OK

Track 2

Filename H:\Sket4er\Rockets – Wonderland 2019\02 Kids From Mars.wav

Pre-gap length 0:00:01.56

Peak level 96.6 %
Extraction speed 1.3 X
Track quality 100.0 %
Test CRC 9B7C4B7C
Copy CRC 9B7C4B7C
Cannot be verified as accurate (confidence 1) [22A3EC17], AccurateRip returned [C8C19114] (AR v2)
Copy OK

Track 3

Filename H:\Sket4er\Rockets – Wonderland 2019\03 Heaven.wav

Pre-gap length 0:00:01.56

Peak level 96.6 %
Extraction speed 1.3 X
Track quality 100.0 %
Test CRC 2A2EF12A
Copy CRC 2A2EF12A
Cannot be verified as accurate (confidence 1) [B7100230], AccurateRip returned [907D2763] (AR v2)
Copy OK

Track 4

Filename H:\Sket4er\Rockets – Wonderland 2019\04 We Are One.wav

Pre-gap length 0:00:01.56

Peak level 96.6 %
Extraction speed 1.4 X
Track quality 100.0 %
Test CRC E4C3F226
Copy CRC E4C3F226
Cannot be verified as accurate (confidence 1) [5CA5AB69], AccurateRip returned [3025CD02] (AR v2)
Copy OK

Track 5

Filename H:\Sket4er\Rockets – Wonderland 2019\05 Strange People.wav

Pre-gap length 0:00:01.56

Peak level 96.6 %
Extraction speed 1.5 X
Track quality 100.0 %
Test CRC A91BBA87
Copy CRC A91BBA87
Cannot be verified as accurate (confidence 1) [72F7910E], AccurateRip returned [A24BF3E3] (AR v2)
Copy OK

Track 6

Filename H:\Sket4er\Rockets – Wonderland 2019\06 Rock ''n Roll Loser.wav

Pre-gap length 0:00:01.56

Peak level 97.5 %
Extraction speed 1.6 X
Track quality 100.0 %
Test CRC 9763BF44
Copy CRC 9763BF44
Cannot be verified as accurate (confidence 1) [167B85AB], AccurateRip returned [5082CC2E] (AR v2)
Copy OK

Track 7

Filename H:\Sket4er\Rockets – Wonderland 2019\07 Get It On.wav

Pre-gap length 0:00:01.56

Peak level 51.1 %
Extraction speed 1.4 X
Track quality 99.9 %
Test CRC 828EA556
Copy CRC 828EA556
Cannot be verified as accurate (confidence 1) [C63F6AC2], AccurateRip returned [F821C568] (AR v2)
Copy OK

Track 8

Filename H:\Sket4er\Rockets – Wonderland 2019\08 Nuclear Fallout.wav

Pre-gap length 0:00:01.56

Peak level 84.3 %
Extraction speed 1.6 X
Track quality 99.9 %
Test CRC B523451B
Copy CRC B523451B
Cannot be verified as accurate (confidence 1) [7AA4CCB0], AccurateRip returned [AE65ADC6] (AR v2)
Copy OK

Track 9

Filename H:\Sket4er\Rockets – Wonderland 2019\09 The One.wav

Pre-gap length 0:00:01.56

Peak level 96.6 %
Extraction speed 1.8 X
Track quality 100.0 %
Test CRC FEC931F3
Copy CRC FEC931F3
Cannot be verified as accurate (confidence 1) [670138FA], AccurateRip returned [C2150524] (AR v2)
Copy OK

Track 10

Filename H:\Sket4er\Rockets – Wonderland 2019\10 Doot Doot.wav

Pre-gap length 0:00:01.56

Peak level 96.7 %
Extraction speed 1.9 X
Track quality 100.0 %
Test CRC A14946D4
Copy CRC A14946D4
Cannot be verified as accurate (confidence 1) [6227E04C], AccurateRip returned [8B69B8F4] (AR v2)
Copy OK

Track 11

Filename H:\Sket4er\Rockets – Wonderland 2019\11 Wonderland.wav

Pre-gap length 0:00:01.56

Peak level 96.6 %
Extraction speed 1.9 X
Track quality 100.0 %
Test CRC 6BDEB7A8
Copy CRC 6BDEB7A8
Cannot be verified as accurate (confidence 1) [18A1C4A6], AccurateRip returned [5C5AFD09] (AR v2)
Copy OK

No tracks could be verified as accurate
You may have a different pressing from the one(s) in the database

No errors occurred

End of status report

---- CUETools DB Plugin V2.1.6

[CTDB TOCID: 3SRM5RNXGtsJ5a9cG2Hxu4ZjoDA-] found
Submit result: 3SRM5RNXGtsJ5a9cG2Hxu4ZjoDA- has been confirmed
Track | CTDB Status
1 | (6/6) Accurately ripped
2 | (6/6) Accurately ripped
3 | (6/6) Accurately ripped
4 | (6/6) Accurately ripped
5 | (6/6) Accurately ripped
6 | (6/6) Accurately ripped
7 | (6/6) Accurately ripped
8 | (6/6) Accurately ripped
9 | (6/6) Accurately ripped
10 | (6/6) Accurately ripped
11 | (6/6) Accurately ripped

==== Log checksum 41450C6197BB566DF39074380EBD7C15437CE021C64ECB3E1C02792C22E06399 ====




   Похожие торренты   Размер 
В этой теме нет новых непрочитанных сообщений. Pet Shop Boys - Dreamland (CD, Single) [2019, Synth-Pop, Pop, MP3] / Pop/ Eurodance/ Disco/ Synthpop/ Spacesynth/ Electronic

50.41 МБ

В этой теме нет новых непрочитанных сообщений. VA - Singles Chat Pop September 2019 Vol.2 [2019, Pop, Dance, Electronic, MP3] / Pop/ Eurodance/ Disco/ Synthpop/ Spacesynth/ Electronic

485.16 МБ

В этой теме нет новых непрочитанных сообщений. Midge Ure - Soundtrack 1978 - 2019 (2CD) [2019, Synth Pop, Pop, Rock, New Wave, FLAC]

999.07 МБ

В этой теме нет новых непрочитанных сообщений. Ace Of Base - Gold [2019, Synth-Pop, Euro Pop, FLAC]

1.26 ГБ

В этой теме нет новых непрочитанных сообщений. VA - Танцевальные Новиночки [2019, Pop, Dance, MP3] / Pop/ Eurodance/ Disco/ Synthpop/ Spacesynth/ Electronic

746 МБ

В этой теме нет новых непрочитанных сообщений. VA - Студенческая вечеринка. Зарубежный [2019, Pop, Dance, MP3] / Pop/ Eurodance/ Disco/ Synthpop/ Spacesynth/ Electronic

771.82 МБ

В этой теме нет новых непрочитанных сообщений. VA - Dance Hits Collection 90s Vol.4 [2019, Pop, Disco, MP3] / Pop/ Eurodance/ Disco/ Synthpop/ Spacesynth/ Electronic

1.09 ГБ




Вы не можете начинать темы
Вы не можете отвечать на сообщения
Вы не можете редактировать свои сообщения
Вы не можете удалять свои сообщения
Вы не можете добавлять вложения

Перейти:  
 Вход
ppkBB3cker v.2 © 2008-2014 @ PPK
[ Time : 0.019s | 19 Queries | GZIP : Off ]

Для правообладателей, рекламодателей и роскомнадзора: rstracker[собачка]yandex.ru
cron