img
Planets Sun Sun Sun
Статистика раздачи
Автор: mari | Размер: 876.71 МБ | Добавлен: 06 ноя 2019
Скачать торрент
Скачать торрент

СообщениеДобавлено: 06 ноя 2019 

VA - Songs from the Movies (3CD)

Формат: FLAC, (tracks + .cue), lossless
Год выпуска: 2019
Страна: All World
Жанр: Pop, Jazz, Soundtrack
Продолжительность: 02:43:00
Описание:

01. The Beatles - Love Me Do (2:19)
02. Dick Dale - Misirlou (2:16)
03. The Vogues - Five O''Clock World (2:08 )
04. Ben E. King - Stand by Me (2:55)
05. Elvis Presley - Hound Dog (2:13)
06. Quincy Jones - Soul Bossa Nova (2:45)
07. Maurice Williams - Stay (1:35)
08. Etta James - At Last (3:01)
09. B.J. Thomas - Raindrops Keep Fallin'' on My Head (2:58 )
10. The Ikettes - I''m Blue (The Gong-Gong Song) (2:32)
11. Louis Armstrong - Kiss to Build a Dream On (3:02)
12. John Lee Hooker - Boom Boom (2:32)
13. Frankie Avalon - Venus (2:24)
14. The Cascades - Rhythm of the Rain (2:34)
15. Jerry Lee Lewis - High School Confidential (2:27)
16. Dave Brubeck - Take Five (5:18 )
17. Barbara Lynn - You''ll Lose a Good Thing (2:24)
18. Shirley & Lee - Let the Good Times Roll (2:22)
19. Frank Sinatra - Witchcraft (2:50)
20. James Brown - Night Train (3:16)

Exact Audio Copy V1.3 from 2. September 2016

EAC extraction logfile from 6. October 2019, 18:27

Various Artists / Songs From The Movies

Used drive : PLEXTOR PX-891SAF Adapter: 1 ID: 0

Read mode : Secure
Utilize accurate stream : Yes
Defeat audio cache : Yes
Make use of C2 pointers : No

Read offset correction : 6
Overread into Lead-In and Lead-Out : No
Fill up missing offset samples with silence : Yes
Delete leading and trailing silent blocks : No
Null samples used in CRC calculations : Yes
Used interface : Native Win32 interface for Win NT & 2000
Gap handling : Appended to previous track

Used output format : User Defined Encoder
Selected bitrate : 1024 kBit/s
Quality : High
Add ID3 tag : No
Command line compressor : C:\Program Files (x86)\Exact Audio Copy\Flac\flac.exe
Additional command line options : -8 -V -T "ARTIST=%artist%" -T "TITLE=%title%" -T "ALBUM=%albumtitle%" -T "DATE=%year%" -T "TRACKNUMBER=%tracknr%" -T "GENRE=%genre%" -T "PERFORMER=%albuminterpret%" -T "COMPOSER=%composer%" %haslyrics%--tag-from-file=LYRICS="%lyricsfile%"%haslyrics% -T "ALBUMARTIST=%albumartist%" -T "DISCNUMBER=%cdnumber%" -T "TOTALDISCS=%totalcds%" -T "TOTALTRACKS=%numtracks%" -T "COMMENT=%comment%" %source% -o %dest%

TOC of the extracted CD

Track | Start | Length | Start sector | End sector
---------------------------------------------------------
1 | 0:00.00 | 2:19.22 | 0 | 10446
2 | 2:19.22 | 2:15.49 | 10447 | 20620
3 | 4:34.71 | 2:08.11 | 20621 | 30231
4 | 6:43.07 | 2:55.00 | 30232 | 43356
5 | 9:38.07 | 2:13.19 | 43357 | 53350
6 | 11:51.26 | 2:45.32 | 53351 | 65757
7 | 14:36.58 | 1:34.47 | 65758 | 72854
8 | 16:11.30 | 3:01.05 | 72855 | 86434
9 | 19:12.35 | 2:57.73 | 86435 | 99782
10 | 22:10.33 | 2:32.07 | 99783 | 111189
11 | 24:42.40 | 3:01.39 | 111190 | 124803
12 | 27:44.04 | 2:32.26 | 124804 | 136229
13 | 30:16.30 | 2:24.20 | 136230 | 147049
14 | 32:40.50 | 2:33.68 | 147050 | 158592
15 | 35:14.43 | 2:26.67 | 158593 | 169609
16 | 37:41.35 | 5:17.68 | 169610 | 193452
17 | 42:59.28 | 2:23.40 | 193453 | 204217
18 | 45:22.68 | 2:22.14 | 204218 | 214881
19 | 47:45.07 | 2:49.53 | 214882 | 227609
20 | 50:34.60 | 3:16.37 | 227610 | 242346

Track 1

Filename D:\#New Wav + flac\VA - Songs From The Movies\cd 1\01. The Beatles - Love Me Do.wav

Pre-gap length 0:00:02.00

Peak level 98.7 %
Extraction speed 4.8 X
Track quality 100.0 %
Test CRC A7BF3BF8
Copy CRC A7BF3BF8
Accurately ripped (confidence 1) [76B5E723] (AR v2)
Copy OK

Track 2

Filename D:\#New Wav + flac\VA - Songs From The Movies\cd 1\02. Dick Dale - Misirlou.wav

Pre-gap length 0:00:01.77

Peak level 95.2 %
Extraction speed 5.0 X
Track quality 100.0 %
Test CRC 83CFCD6D
Copy CRC 83CFCD6D
Accurately ripped (confidence 1) [94A4D3A6] (AR v2)
Copy OK

Track 3

Filename D:\#New Wav + flac\VA - Songs From The Movies\cd 1\03. The Vogues - Five O''Clock World.wav

Pre-gap length 0:00:01.77

Peak level 98.3 %
Extraction speed 3.9 X
Track quality 99.9 %
Test CRC 7B86EA81
Copy CRC 7B86EA81
Accurately ripped (confidence 1) [0936C2E7] (AR v2)
Copy OK

Track 4

Filename D:\#New Wav + flac\VA - Songs From The Movies\cd 1\04. Ben E. King - Stand By Me.wav

Pre-gap length 0:00:01.77

Peak level 98.3 %
Extraction speed 5.8 X
Track quality 100.0 %
Test CRC B5BF7581
Copy CRC B5BF7581
Accurately ripped (confidence 1) [27687E04] (AR v2)
Copy OK

Track 5

Filename D:\#New Wav + flac\VA - Songs From The Movies\cd 1\05. Elvis Presley - Hound Dog.wav

Pre-gap length 0:00:01.77

Peak level 94.3 %
Extraction speed 5.8 X
Track quality 100.0 %
Test CRC F22A3381
Copy CRC F22A3381
Accurately ripped (confidence 1) [2A2BAF10] (AR v2)
Copy OK

Track 6

Filename D:\#New Wav + flac\VA - Songs From The Movies\cd 1\06. Quicy Jones - Soul Bossa Nova.wav

Pre-gap length 0:00:01.77

Peak level 91.8 %
Extraction speed 6.4 X
Track quality 100.0 %
Test CRC 275F5408
Copy CRC 275F5408
Accurately ripped (confidence 1) [A87E4CD0] (AR v2)
Copy OK

Track 7

Filename D:\#New Wav + flac\VA - Songs From The Movies\cd 1\07. Maurice Williams - Stay.wav

Pre-gap length 0:00:01.77

Peak level 98.3 %
Extraction speed 4.0 X
Track quality 99.8 %
Test CRC 6ECAE855
Copy CRC 6ECAE855
Accurately ripped (confidence 1) [438B3AB0] (AR v2)
Copy OK

Track 8

Filename D:\#New Wav + flac\VA - Songs From The Movies\cd 1\08. Etta James - At Last.wav

Pre-gap length 0:00:01.77

Peak level 98.2 %
Extraction speed 6.8 X
Track quality 100.0 %
Test CRC A1054446
Copy CRC A1054446
Accurately ripped (confidence 1) [CB93BAB6] (AR v2)
Copy OK

Track 9

Filename D:\#New Wav + flac\VA - Songs From The Movies\cd 1\09. B.J. Thomas - Raindrops Keep Fallin'' On My Head.wav

Pre-gap length 0:00:01.77

Peak level 98.3 %
Extraction speed 5.6 X
Track quality 99.9 %
Test CRC 7880B9D9
Copy CRC 7880B9D9
Accurately ripped (confidence 1) [DC55AE82] (AR v2)
Copy OK

Track 10

Filename D:\#New Wav + flac\VA - Songs From The Movies\cd 1\10. The Ikettes - I''m Blue (The Gong-Gong Song).wav

Pre-gap length 0:00:01.77

Peak level 98.3 %
Extraction speed 7.1 X
Track quality 100.0 %
Test CRC 0DE4AC78
Copy CRC 0DE4AC78
Accurately ripped (confidence 1) [69F95941] (AR v2)
Copy OK

Track 11

Filename D:\#New Wav + flac\VA - Songs From The Movies\cd 1\11. Louis Armstrong - Kiss To Build A Dream On.wav

Pre-gap length 0:00:01.77

Peak level 98.4 %
Extraction speed 7.6 X
Track quality 100.0 %
Test CRC BE605F42
Copy CRC BE605F42
Accurately ripped (confidence 1) [93555D29] (AR v2)
Copy OK

Track 12

Filename D:\#New Wav + flac\VA - Songs From The Movies\cd 1\12. John Lee Hooker - Boom Boom.wav

Pre-gap length 0:00:01.77

Peak level 97.5 %
Extraction speed 7.7 X
Track quality 100.0 %
Test CRC 746FA59E
Copy CRC 746FA59E
Accurately ripped (confidence 1) [2B721425] (AR v2)
Copy OK

Track 13

Filename D:\#New Wav + flac\VA - Songs From The Movies\cd 1\13. Frankie Avalon - Venus.wav

Pre-gap length 0:00:01.77

Peak level 98.4 %
Extraction speed 7.7 X
Track quality 100.0 %
Test CRC ABF75D46
Copy CRC ABF75D46
Accurately ripped (confidence 1) [0E818A98] (AR v2)
Copy OK

Track 14

Filename D:\#New Wav + flac\VA - Songs From The Movies\cd 1\14. The Cascades - Rhythm Of The Rain.wav

Pre-gap length 0:00:01.77

Peak level 98.3 %
Extraction speed 8.0 X
Track quality 100.0 %
Test CRC 42F655C1
Copy CRC 42F655C1
Accurately ripped (confidence 1) [D8D2E889] (AR v2)
Copy OK

Track 15

Filename D:\#New Wav + flac\VA - Songs From The Movies\cd 1\15. Jerry Lee Lewis - High School Confidential.wav

Pre-gap length 0:00:01.77

Peak level 98.3 %
Extraction speed 8.0 X
Track quality 100.0 %
Test CRC 6D9184AE
Copy CRC 6D9184AE
Accurately ripped (confidence 1) [3A026377] (AR v2)
Copy OK

Track 16

Filename D:\#New Wav + flac\VA - Songs From The Movies\cd 1\16. Dave Brubeck - Take Five.wav

Pre-gap length 0:00:01.77

Peak level 98.3 %
Extraction speed 9.4 X
Track quality 100.0 %
Test CRC 1E158252
Copy CRC 1E158252
Accurately ripped (confidence 1) [F342B7FF] (AR v2)
Copy OK

Track 17

Filename D:\#New Wav + flac\VA - Songs From The Movies\cd 1\17. Barbara Lynn - You''ll Lose A Good Thing.wav

Pre-gap length 0:00:01.77

Peak level 98.3 %
Extraction speed 8.5 X
Track quality 100.0 %
Test CRC 4140A58E
Copy CRC 4140A58E
Accurately ripped (confidence 1) [61F12A3E] (AR v2)
Copy OK

Track 18

Filename D:\#New Wav + flac\VA - Songs From The Movies\cd 1\18. Shirley & Lee - Let The Good Times Roll.wav

Pre-gap length 0:00:01.77

Peak level 98.5 %
Extraction speed 8.7 X
Track quality 100.0 %
Test CRC C9DCC755
Copy CRC C9DCC755
Accurately ripped (confidence 1) [55F1CBA5] (AR v2)
Copy OK

Track 19

Filename D:\#New Wav + flac\VA - Songs From The Movies\cd 1\19. Frank Sinatra - Witchcraft.wav

Pre-gap length 0:00:01.77

Peak level 98.3 %
Extraction speed 9.1 X
Track quality 100.0 %
Test CRC C84D3434
Copy CRC C84D3434
Accurately ripped (confidence 1) [D0D06AE2] (AR v2)
Copy OK

Track 20

Filename D:\#New Wav + flac\VA - Songs From The Movies\cd 1\20. James Brown - Night Train.wav

Pre-gap length 0:00:01.77

Peak level 98.5 %
Extraction speed 9.5 X
Track quality 100.0 %
Test CRC 3A0EE95C
Copy CRC 3A0EE95C
Accurately ripped (confidence 1) [CF5D48DA] (AR v2)
Copy OK

All tracks accurately ripped

No errors occurred

End of status report

---- CUETools DB Plugin V2.1.6

[CTDB TOCID: dQRT030qBPTDdGAK3M9K1vwcO.E-] disk not present in database
Submit result: dQRT030qBPTDdGAK3M9K1vwcO.E- has been uploaded

==== Log checksum 10D9A9894CDF37D9D59217AE1CC554C088ADD9ADF5A1545899982727805ED614 ====



01. The Trashmen - Surfin'' Bird (2:18 )
02. Link Wray - Comanche (2:01)
03. Chris Montez - Let''s Dance (2:26)
04. Del Shannon - Runaway (2:19)
05. Little Eva - The Loco-Motion (2:26)
06. Patsy Cline - Crazy (2:38 )
07. Howlin'' Wolf - Smokestack Lightnin'' (3:06)
08. Chan Romero - The Hippy Hippy Shake (1:44)
09. Booker T. & The M.G.''s - Green Onions (2:52)
10. Dean Martin - That''s Amore (3:03)
11. Bobby Troup - Route 66 (2:40)
12. Chuck Berry - Johnny B. Goode (2:37)
13. Duane Eddy - Rebel Rouser (2:19)
14. Harry McClintock - The Big Rock Candy Mountain (2:19)
15. Sam Cooke - You Send Me (2:46)
16. Screamin'' Jay Hawkins - I Put a Spell on You (2:27)
17. Bo Diddley - Who Do You Love (2:31)
18. The Tokens - The Lion Sleeps Tonight (Wimoweh) (2:37)
19. Julie London - Cry Me a River (2:54)
20. The John Barry Seven - The James Bond Theme (1:57)

Exact Audio Copy V1.3 from 2. September 2016

EAC extraction logfile from 6. October 2019, 19:03

Various Artists / Songs From The Movies

Used drive : PLEXTOR PX-891SAF Adapter: 1 ID: 0

Read mode : Secure
Utilize accurate stream : Yes
Defeat audio cache : Yes
Make use of C2 pointers : No

Read offset correction : 6
Overread into Lead-In and Lead-Out : No
Fill up missing offset samples with silence : Yes
Delete leading and trailing silent blocks : No
Null samples used in CRC calculations : Yes
Used interface : Native Win32 interface for Win NT & 2000
Gap handling : Appended to previous track

Used output format : User Defined Encoder
Selected bitrate : 1024 kBit/s
Quality : High
Add ID3 tag : No
Command line compressor : C:\Program Files (x86)\Exact Audio Copy\Flac\flac.exe
Additional command line options : -8 -V -T "ARTIST=%artist%" -T "TITLE=%title%" -T "ALBUM=%albumtitle%" -T "DATE=%year%" -T "TRACKNUMBER=%tracknr%" -T "GENRE=%genre%" -T "PERFORMER=%albuminterpret%" -T "COMPOSER=%composer%" %haslyrics%--tag-from-file=LYRICS="%lyricsfile%"%haslyrics% -T "ALBUMARTIST=%albumartist%" -T "DISCNUMBER=%cdnumber%" -T "TOTALDISCS=%totalcds%" -T "TOTALTRACKS=%numtracks%" -T "COMMENT=%comment%" %source% -o %dest%

TOC of the extracted CD

Track | Start | Length | Start sector | End sector
---------------------------------------------------------
1 | 0:00.00 | 2:17.56 | 0 | 10330
2 | 2:17.56 | 2:01.35 | 10331 | 19440
3 | 4:19.16 | 2:25.59 | 19441 | 30374
4 | 6:45.00 | 2:19.13 | 30375 | 40812
5 | 9:04.13 | 2:25.64 | 40813 | 51751
6 | 11:30.02 | 2:38.37 | 51752 | 63638
7 | 14:08.39 | 3:06.10 | 63639 | 77598
8 | 17:14.49 | 1:43.70 | 77599 | 85393
9 | 18:58.44 | 2:51.53 | 85394 | 98271
10 | 21:50.22 | 3:03.00 | 98272 | 111996
11 | 24:53.22 | 2:40.01 | 111997 | 123997
12 | 27:33.23 | 2:36.48 | 123998 | 135745
13 | 30:09.71 | 2:19.12 | 135746 | 146182
14 | 32:29.08 | 2:18.55 | 146183 | 156587
15 | 34:47.63 | 2:45.44 | 156588 | 169006
16 | 37:33.32 | 2:27.25 | 169007 | 180056
17 | 40:00.57 | 2:31.02 | 180057 | 191383
18 | 42:31.59 | 2:37.13 | 191384 | 203171
19 | 45:08.72 | 2:54.03 | 203172 | 216224
20 | 48:03.00 | 1:56.71 | 216225 | 224995

Track 1

Filename D:\#New Wav + flac\VA - Songs From The Movies\cd 2\01. The Trashmen - Surfin'' Bird.wav

Pre-gap length 0:00:02.00

Peak level 97.1 %
Extraction speed 3.5 X
Track quality 99.9 %
Test CRC AD1CE885
Copy CRC AD1CE885
Accurately ripped (confidence 1) [811109D3] (AR v2)
Copy OK

Track 2

Filename D:\#New Wav + flac\VA - Songs From The Movies\cd 2\02. Link Wray - Comanche.wav

Pre-gap length 0:00:01.77

Peak level 98.4 %
Extraction speed 3.6 X
Track quality 99.9 %
Test CRC 2189F7D0
Copy CRC 2189F7D0
Accurately ripped (confidence 1) [6A523FB8] (AR v2)
Copy OK

Track 3

Filename D:\#New Wav + flac\VA - Songs From The Movies\cd 2\03. Chris Montez - Let''s Dance.wav

Pre-gap length 0:00:01.77

Peak level 98.3 %
Extraction speed 5.2 X
Track quality 100.0 %
Test CRC A78D88D7
Copy CRC A78D88D7
Accurately ripped (confidence 1) [519AED85] (AR v2)
Copy OK

Track 4

Filename D:\#New Wav + flac\VA - Songs From The Movies\cd 2\04. Del Shannon - Runaway.wav

Pre-gap length 0:00:01.77

Peak level 98.3 %
Extraction speed 5.4 X
Track quality 100.0 %
Test CRC CCC5107C
Copy CRC CCC5107C
Accurately ripped (confidence 1) [A07BFB30] (AR v2)
Copy OK

Track 5

Filename D:\#New Wav + flac\VA - Songs From The Movies\cd 2\05. Little Eva - The Loco-Motion.wav

Pre-gap length 0:00:01.77

Peak level 98.3 %
Extraction speed 5.8 X
Track quality 100.0 %
Test CRC 273AEB5B
Copy CRC 273AEB5B
Accurately ripped (confidence 1) [D5E6973F] (AR v2)
Copy OK

Track 6

Filename D:\#New Wav + flac\VA - Songs From The Movies\cd 2\06. Patsy Cline - Crazy.wav

Pre-gap length 0:00:01.77

Peak level 98.4 %
Extraction speed 6.1 X
Track quality 100.0 %
Test CRC 99139EEB
Copy CRC 99139EEB
Accurately ripped (confidence 1) [238ABD52] (AR v2)
Copy OK

Track 7

Filename D:\#New Wav + flac\VA - Songs From The Movies\cd 2\07. Howlin'' Wolf - Smokestack Lightnin''.wav

Pre-gap length 0:00:01.77

Peak level 98.4 %
Extraction speed 6.5 X
Track quality 100.0 %
Test CRC 07F41EBF
Copy CRC 07F41EBF
Accurately ripped (confidence 1) [A8F3CC6A] (AR v2)
Copy OK

Track 8

Filename D:\#New Wav + flac\VA - Songs From The Movies\cd 2\08. Chan Romero - The Hippy Hippy Shake.wav

Pre-gap length 0:00:01.77

Peak level 91.7 %
Extraction speed 4.2 X
Track quality 99.8 %
Test CRC A60838FE
Copy CRC A60838FE
Accurately ripped (confidence 1) [6D32773E] (AR v2)
Copy OK

Track 9

Filename D:\#New Wav + flac\VA - Songs From The Movies\cd 2\09. Booker T. & the MG''s - Green Onions.wav

Pre-gap length 0:00:01.77

Peak level 98.3 %
Extraction speed 6.9 X
Track quality 100.0 %
Test CRC 9EE959BF
Copy CRC 9EE959BF
Accurately ripped (confidence 1) [E17064B2] (AR v2)
Copy OK

Track 10

Filename D:\#New Wav + flac\VA - Songs From The Movies\cd 2\10. Dean Martin - That''s Amore.wav

Pre-gap length 0:00:01.77

Peak level 98.3 %
Extraction speed 7.2 X
Track quality 100.0 %
Test CRC 2EDAA8F9
Copy CRC 2EDAA8F9
Accurately ripped (confidence 1) [4416EF4C] (AR v2)
Copy OK

Track 11

Filename D:\#New Wav + flac\VA - Songs From The Movies\cd 2\11. Bobby Troupe - Route 66.wav

Pre-gap length 0:00:01.77

Peak level 98.3 %
Extraction speed 5.5 X
Track quality 99.9 %
Test CRC 639C69F6
Copy CRC 639C69F6
Accurately ripped (confidence 1) [0C6B9CDC] (AR v2)
Copy OK

Track 12

Filename D:\#New Wav + flac\VA - Songs From The Movies\cd 2\12. Chuck Berry - Johnny B Goode.wav

Pre-gap length 0:00:01.77

Peak level 98.3 %
Extraction speed 7.5 X
Track quality 100.0 %
Test CRC A131BBA8
Copy CRC A131BBA8
Accurately ripped (confidence 1) [0993E1E9] (AR v2)
Copy OK

Track 13

Filename D:\#New Wav + flac\VA - Songs From The Movies\cd 2\13. Duane Eddy - Rebel Rouser.wav

Pre-gap length 0:00:01.77

Peak level 97.7 %
Extraction speed 7.5 X
Track quality 100.0 %
Test CRC A50750F2
Copy CRC A50750F2
Accurately ripped (confidence 1) [587A1E96] (AR v2)
Copy OK

Track 14

Filename D:\#New Wav + flac\VA - Songs From The Movies\cd 2\14. Harry McClintock - The Big Rock Candy Mountain.wav

Pre-gap length 0:00:01.77

Peak level 98.3 %
Extraction speed 7.7 X
Track quality 100.0 %
Test CRC 46A6BA1A
Copy CRC 46A6BA1A
Accurately ripped (confidence 1) [2B0A1A1C] (AR v2)
Copy OK

Track 15

Filename D:\#New Wav + flac\VA - Songs From The Movies\cd 2\15. Sam Cooke - You Send Me.wav

Pre-gap length 0:00:01.77

Peak level 98.4 %
Extraction speed 8.0 X
Track quality 100.0 %
Test CRC F7553DD4
Copy CRC F7553DD4
Accurately ripped (confidence 1) [A13B297E] (AR v2)
Copy OK

Track 16

Filename D:\#New Wav + flac\VA - Songs From The Movies\cd 2\16. Screamin'' Jay Hawkins - I Put A Spell On You.wav

Pre-gap length 0:00:01.77

Peak level 98.3 %
Extraction speed 8.0 X
Track quality 100.0 %
Test CRC 19EDB9A4
Copy CRC 19EDB9A4
Accurately ripped (confidence 1) [5A9F73E8] (AR v2)
Copy OK

Track 17

Filename D:\#New Wav + flac\VA - Songs From The Movies\cd 2\17. Bo Diddley - Who Do You Love.wav

Pre-gap length 0:00:01.77

Peak level 98.2 %
Extraction speed 6.2 X
Track quality 99.9 %
Test CRC B7839A03
Copy CRC B7839A03
Accurately ripped (confidence 1) [910E1D9F] (AR v2)
Copy OK

Track 18

Filename D:\#New Wav + flac\VA - Songs From The Movies\cd 2\18. The Tokens - The Lion Sleeps Tonight.wav

Pre-gap length 0:00:01.77

Peak level 98.3 %
Extraction speed 8.5 X
Track quality 100.0 %
Test CRC B6EFB2CD
Copy CRC B6EFB2CD
Accurately ripped (confidence 1) [6AB508AC] (AR v2)
Copy OK

Track 19

Filename D:\#New Wav + flac\VA - Songs From The Movies\cd 2\19. Julie London - Cry Me A River.wav

Pre-gap length 0:00:01.77

Peak level 98.3 %
Extraction speed 8.6 X
Track quality 100.0 %
Test CRC 517FC603
Copy CRC 517FC603
Accurately ripped (confidence 1) [1296B176] (AR v2)
Copy OK

Track 20

Filename D:\#New Wav + flac\VA - Songs From The Movies\cd 2\20. The John Barry Seven - The James Bond Theme.wav

Pre-gap length 0:00:01.77

Peak level 97.8 %
Extraction speed 8.2 X
Track quality 100.0 %
Test CRC 50E5ECC1
Copy CRC 50E5ECC1
Accurately ripped (confidence 1) [38D2E9DE] (AR v2)
Copy OK

All tracks accurately ripped

No errors occurred

End of status report

---- CUETools DB Plugin V2.1.6

[CTDB TOCID: LeKc.VOCEZA6DzBeYjGVtE2g66Q-] disk not present in database
Submit result: LeKc.VOCEZA6DzBeYjGVtE2g66Q- has been uploaded

==== Log checksum EB1E6A6FD7FC93D8FBF3C01F08AA8009CBE28B4B945502D4F1EA016312BD6B19 ====



01. Ray Charles - What''d I Say (5:06)
02. Fontella Bass - Rescue Me (2:53)
03. Carole King - It Might as Well Rain Until September (2:25)
04. Dion - The Wanderer (2:41)
05. Bruce Channel - Hey! Baby (2:24)
06. Buddy Holly - Everyday (2:06)
07. Frank Sinatra - It Had to Be You (3:55)
08. Ricky Nelson - Lonesome Town (2:16)
09. Fats Domino - Ain''t That a Shame (2:29)
10. Cab Calloway - Minnie the Moocher (3:27)
11. Jimmy Reed - Take Out Some Insurance (2:24)
12. Bobby Lewis - Tossin'' and Turnin'' (2:29)
13. Harry Belafonte - Jump in Line (3:42)
14. Judy Garland - The Man That Got Away (3:39)
15. Tex Ritter - High Noon (Do Not Forsake Me) (2:49)
16. Billy Ward & His Dominoes - Sixty Minute Man (2:03)
17. Nat King Cole - Stardust (3:16)
18. The Silhouettes - Get a Job (2:47)
19. Marilyn Monroe - Diamonds Are a Girls Best Friend (3:32)
20. Henry Mancini & Chorus - Moon River (2:46)

Exact Audio Copy V1.3 from 2. September 2016

EAC extraction logfile from 6. October 2019, 19:31

Various Artists / Songs From The Movies

Used drive : PLEXTOR PX-891SAF Adapter: 1 ID: 0

Read mode : Secure
Utilize accurate stream : Yes
Defeat audio cache : Yes
Make use of C2 pointers : No

Read offset correction : 6
Overread into Lead-In and Lead-Out : No
Fill up missing offset samples with silence : Yes
Delete leading and trailing silent blocks : No
Null samples used in CRC calculations : Yes
Used interface : Native Win32 interface for Win NT & 2000
Gap handling : Appended to previous track

Used output format : User Defined Encoder
Selected bitrate : 1024 kBit/s
Quality : High
Add ID3 tag : No
Command line compressor : C:\Program Files (x86)\Exact Audio Copy\Flac\flac.exe
Additional command line options : -8 -V -T "ARTIST=%artist%" -T "TITLE=%title%" -T "ALBUM=%albumtitle%" -T "DATE=%year%" -T "TRACKNUMBER=%tracknr%" -T "GENRE=%genre%" -T "PERFORMER=%albuminterpret%" -T "COMPOSER=%composer%" %haslyrics%--tag-from-file=LYRICS="%lyricsfile%"%haslyrics% -T "ALBUMARTIST=%albumartist%" -T "DISCNUMBER=%cdnumber%" -T "TOTALDISCS=%totalcds%" -T "TOTALTRACKS=%numtracks%" -T "COMMENT=%comment%" %source% -o %dest%

TOC of the extracted CD

Track | Start | Length | Start sector | End sector
---------------------------------------------------------
1 | 0:00.00 | 5:05.44 | 0 | 22918
2 | 5:05.44 | 2:53.20 | 22919 | 35913
3 | 7:58.64 | 2:24.38 | 35914 | 46751
4 | 10:23.27 | 2:40.42 | 46752 | 58793
5 | 13:03.69 | 2:24.37 | 58794 | 69630
6 | 15:28.31 | 2:06.17 | 69631 | 79097
7 | 17:34.48 | 3:54.68 | 79098 | 96715
8 | 21:29.41 | 2:16.21 | 96716 | 106936
9 | 23:45.62 | 2:28.62 | 106937 | 118098
10 | 26:14.49 | 3:26.44 | 118099 | 133592
11 | 29:41.18 | 2:23.44 | 133593 | 144361
12 | 32:04.62 | 2:28.58 | 144362 | 155519
13 | 34:33.45 | 3:42.24 | 155520 | 172193
14 | 38:15.69 | 3:38.62 | 172194 | 188605
15 | 41:54.56 | 2:48.73 | 188606 | 201278
16 | 44:43.54 | 2:03.02 | 201279 | 210505
17 | 46:46.56 | 3:15.46 | 210506 | 225176
18 | 50:02.27 | 2:47.17 | 225177 | 237718
19 | 52:49.44 | 3:32.36 | 237719 | 253654
20 | 56:22.05 | 2:45.49 | 253655 | 266078

Track 1

Filename D:\#New Wav + flac\VA - Songs From The Movies\cd 3\01. Ray Charles - What''d I Say.wav

Pre-gap length 0:00:02.00

Peak level 98.3 %
Extraction speed 5.5 X
Track quality 100.0 %
Test CRC 0125BB8D
Copy CRC 0125BB8D
Accurately ripped (confidence 1) [19B02C63] (AR v2)
Copy OK

Track 2

Filename D:\#New Wav + flac\VA - Songs From The Movies\cd 3\02. Fontella Bass - Rescue Me.wav

Pre-gap length 0:00:01.77

Peak level 98.4 %
Extraction speed 4.3 X
Track quality 99.9 %
Test CRC C83947E3
Copy CRC C83947E3
Accurately ripped (confidence 1) [8C67A611] (AR v2)
Copy OK

Track 3

Filename D:\#New Wav + flac\VA - Songs From The Movies\cd 3\03. Carole King - It Might As Well Rain Until September.wav

Pre-gap length 0:00:01.77

Peak level 98.3 %
Extraction speed 5.6 X
Track quality 100.0 %
Test CRC 6F2C5F3D
Copy CRC 6F2C5F3D
Accurately ripped (confidence 1) [B8F0BCA1] (AR v2)
Copy OK

Track 4

Filename D:\#New Wav + flac\VA - Songs From The Movies\cd 3\04. Dion - The Wanderer.wav

Pre-gap length 0:00:01.77

Peak level 98.4 %
Extraction speed 5.9 X
Track quality 100.0 %
Test CRC 5BF4626A
Copy CRC 5BF4626A
Accurately ripped (confidence 1) [1A47A1EF] (AR v2)
Copy OK

Track 5

Filename D:\#New Wav + flac\VA - Songs From The Movies\cd 3\05. Bruce Channel - Hey! Baby.wav

Pre-gap length 0:00:01.77

Peak level 98.3 %
Extraction speed 6.1 X
Track quality 100.0 %
Test CRC B516313F
Copy CRC B516313F
Accurately ripped (confidence 1) [18B0A6D0] (AR v2)
Copy OK

Track 6

Filename D:\#New Wav + flac\VA - Songs From The Movies\cd 3\06. Buddy Holly - Everyday.wav

Pre-gap length 0:00:01.77

Peak level 98.5 %
Extraction speed 6.1 X
Track quality 100.0 %
Test CRC B4223DAA
Copy CRC B4223DAA
Accurately ripped (confidence 1) [57C4F826] (AR v2)
Copy OK

Track 7

Filename D:\#New Wav + flac\VA - Songs From The Movies\cd 3\07. Frank Sinatra - It Had To Be You.wav

Pre-gap length 0:00:01.77

Peak level 98.4 %
Extraction speed 7.1 X
Track quality 100.0 %
Test CRC B8B1CFED
Copy CRC B8B1CFED
Accurately ripped (confidence 1) [1241A6D5] (AR v2)
Copy OK

Track 8

Filename D:\#New Wav + flac\VA - Songs From The Movies\cd 3\08. Ricky Nelson - Lonesome Town.wav

Pre-gap length 0:00:01.77

Peak level 98.3 %
Extraction speed 6.7 X
Track quality 100.0 %
Test CRC 3A89422C
Copy CRC 3A89422C
Accurately ripped (confidence 1) [69CDF771] (AR v2)
Copy OK

Track 9

Filename D:\#New Wav + flac\VA - Songs From The Movies\cd 3\09. Fats Domino - Ain''t That A Shame.wav

Pre-gap length 0:00:01.77

Peak level 98.3 %
Extraction speed 6.9 X
Track quality 100.0 %
Test CRC DD189972
Copy CRC DD189972
Accurately ripped (confidence 1) [8A18411B] (AR v2)
Copy OK

Track 10

Filename D:\#New Wav + flac\VA - Songs From The Movies\cd 3\10. Cab Calloway - Minnie The Moocher.wav

Pre-gap length 0:00:01.77

Peak level 98.3 %
Extraction speed 7.6 X
Track quality 100.0 %
Test CRC 8BA7AD26
Copy CRC 8BA7AD26
Accurately ripped (confidence 1) [5381DBE5] (AR v2)
Copy OK

Track 11

Filename D:\#New Wav + flac\VA - Songs From The Movies\cd 3\11. Jimmy Reed - Take Out Some Insurance.wav

Pre-gap length 0:00:01.77

Peak level 98.3 %
Extraction speed 7.4 X
Track quality 100.0 %
Test CRC 688016A5
Copy CRC 688016A5
Accurately ripped (confidence 1) [283CD474] (AR v2)
Copy OK

Track 12

Filename D:\#New Wav + flac\VA - Songs From The Movies\cd 3\12. Bobby Lewis - Tossin'' And Turnin''.wav

Pre-gap length 0:00:01.77

Peak level 98.3 %
Extraction speed 7.6 X
Track quality 100.0 %
Test CRC 21164C2D
Copy CRC 21164C2D
Accurately ripped (confidence 1) [3AAE7653] (AR v2)
Copy OK

Track 13

Filename D:\#New Wav + flac\VA - Songs From The Movies\cd 3\13. Harry Belafonte - Jump In Line.wav

Pre-gap length 0:00:01.77

Peak level 98.3 %
Extraction speed 8.4 X
Track quality 100.0 %
Test CRC D6077286
Copy CRC D6077286
Accurately ripped (confidence 1) [51A06A64] (AR v2)
Copy OK

Track 14

Filename D:\#New Wav + flac\VA - Songs From The Movies\cd 3\14. Judy Garland - The Man That Got Away.wav

Pre-gap length 0:00:01.77

Peak level 98.3 %
Extraction speed 8.5 X
Track quality 100.0 %
Test CRC D15F470D
Copy CRC D15F470D
Accurately ripped (confidence 1) [0B667EED] (AR v2)
Copy OK

Track 15

Filename D:\#New Wav + flac\VA - Songs From The Movies\cd 3\15. Tex Ritter - High Noon (Do Not Forsake Me).wav

Pre-gap length 0:00:01.77

Peak level 98.3 %
Extraction speed 6.5 X
Track quality 99.9 %
Test CRC BAD21EC0
Copy CRC BAD21EC0
Accurately ripped (confidence 1) [3E3D8465] (AR v2)
Copy OK

Track 16

Filename D:\#New Wav + flac\VA - Songs From The Movies\cd 3\16. Billy Ward & His Dominoes - Sixty Minute Man.wav

Pre-gap length 0:00:01.77

Peak level 98.3 %
Extraction speed 8.1 X
Track quality 100.0 %
Test CRC DF07F9F2
Copy CRC DF07F9F2
Accurately ripped (confidence 1) [137A9A21] (AR v2)
Copy OK

Track 17

Filename D:\#New Wav + flac\VA - Songs From The Movies\cd 3\17. Nat King Cole - Stardust.wav

Pre-gap length 0:00:01.77

Peak level 93.9 %
Extraction speed 8.9 X
Track quality 100.0 %
Test CRC 3EA193FC
Copy CRC 3EA193FC
Accurately ripped (confidence 1) [898F4E98] (AR v2)
Copy OK

Track 18

Filename D:\#New Wav + flac\VA - Songs From The Movies\cd 3\18. The Silhouettes - Get A Job.wav

Pre-gap length 0:00:01.77

Peak level 98.3 %
Extraction speed 8.9 X
Track quality 100.0 %
Test CRC 15910BFC
Copy CRC 15910BFC
Accurately ripped (confidence 1) [8E523AD9] (AR v2)
Copy OK

Track 19

Filename D:\#New Wav + flac\VA - Songs From The Movies\cd 3\19. Marilyn Monroe - Diamonds Are A Girl''s Best Friend.wav

Pre-gap length 0:00:01.77

Peak level 98.3 %
Extraction speed 7.6 X
Track quality 99.9 %
Test CRC BAE24C74
Copy CRC BAE24C74
Accurately ripped (confidence 1) [463EDFAB] (AR v2)
Copy OK

Track 20

Filename D:\#New Wav + flac\VA - Songs From The Movies\cd 3\20. The Henry Mancini Chorus - Moon River.wav

Pre-gap length 0:00:01.77

Peak level 98.3 %
Extraction speed 7.0 X
Track quality 99.9 %
Test CRC 9DBF1802
Copy CRC 9DBF1802
Accurately ripped (confidence 1) [1CA9D300] (AR v2)
Copy OK

All tracks accurately ripped

No errors occurred

End of status report

---- CUETools DB Plugin V2.1.6

[CTDB TOCID: FUeUCpTbaD00JehL9dg4nvy.2oY-] disk not present in database
Submit result: FUeUCpTbaD00JehL9dg4nvy.2oY- has been uploaded

==== Log checksum 10085BA324959EFE8F3D2D7F155B2706C572E59398AC2500491A2C43BF87C99A ====




   Похожие торренты   Размер 
В этой теме нет новых непрочитанных сообщений. Freddie Mercury - Never Boring (3CD) [2019, Rock, Pop Rock, FLAC]

3.24 ГБ

В этой теме нет новых непрочитанных сообщений. Midge Ure - Soundtrack 1978 - 2019 (2CD) [2019, Synth Pop, Pop, Rock, New Wave, FLAC]

999.07 МБ

В этой теме нет новых непрочитанных сообщений. VA - Singles Chat Pop September 2019 Vol.2 [2019, Pop, Dance, Electronic, MP3] / Pop/ Eurodance/ Disco/ Synthpop/ Spacesynth/ Electronic

485.16 МБ

В этой теме нет новых непрочитанных сообщений. Pet Shop Boys - Dreamland (CD, Single) [2019, Synth-Pop, Pop, MP3] / Pop/ Eurodance/ Disco/ Synthpop/ Spacesynth/ Electronic

50.41 МБ

В этой теме нет новых непрочитанных сообщений. Ace Of Base - Gold [2019, Synth-Pop, Euro Pop, FLAC]

1.26 ГБ

В этой теме нет новых непрочитанных сообщений. Rockets - Wonderland [2019, Electronic Rock, Dance-Pop, Synth-Pop, FLAC]

257.52 МБ

В этой теме нет новых непрочитанных сообщений. VA - Ultimate... Movies [4CDs Of Great Hits From The Movies] (2015) FLAC

1.8 ГБ




Вы не можете начинать темы
Вы не можете отвечать на сообщения
Вы не можете редактировать свои сообщения
Вы не можете удалять свои сообщения
Вы не можете добавлять вложения

Перейти:  
 Вход
ppkBB3cker v.2 © 2008-2014 @ PPK
[ Time : 0.020s | 19 Queries | GZIP : Off ]

Для правообладателей, рекламодателей и роскомнадзора: rstracker[собачка]yandex.ru
cron