Planets Sun Sun Sun

COVID-19 - Последняя информация о коронавирусе на сайте Минздрава


Статистика раздачи
Автор: mari | Размер: 548.9 МБ | Добавлен: 07 ноя 2019


Скачать торрент
Скачать торрент

СообщениеДобавлено: 07 ноя 2019 

Boney M - Music & Video Stars

Формат: FLAC, (image + .cue), lossless
Год выпуска: 2013
Страна: Germany
Жанр: Disco, Funk, Soul, Pop
Продолжительность: 01:17:45
Описание:

01. Baby Do You Want Bump 6:53 (1975)
02. Daddy Cool 3:26 (1976)
03. Sunny 4:01 (1976)
04. Ma Baker 4:34 (1977)
05. Belfast 3:29 (1977)
06. Rivers Of Babylon 4:18 (1978)
07. Rasputin 5:51 (1978)
08. Mary''s Boy / Oh My Lord 5:43 (1978)
09. Gotta Go Home 3:45 (1979)
10. El Lute 5:53 (1979)
11. Calendar Song (January, February, March...) 2:37 (1979)
12. I See A Boat On The River (7" Version) 4:40 (1980)
13. Bahama Mama 3:16 (1979)
14. Felicidad (Margherita) 4:39 (1980)
15. Kalinmba De Luna 7:18 (1984)
16. Hooray! Hooray! It''s A Holi-Holiday 3:55 (1979)
17. Barbra Streisand vs. Marilyn Monroe (Club Mix) 3:11 (2011)

Доп. информация:
Exact Audio Copy V1.3 from 2. September 2016

EAC extraction logfile from 4. November 2019, 16:06

Boney M / Music & Video Stars CD

Used drive : ATAPI iHAS122 C Adapter: 1 ID: 0

Read mode : Secure
Utilize accurate stream : Yes
Defeat audio cache : Yes
Make use of C2 pointers : No

Read offset correction : 6
Overread into Lead-In and Lead-Out : No
Fill up missing offset samples with silence : Yes
Delete leading and trailing silent blocks : No
Null samples used in CRC calculations : Yes
Used interface : Native Win32 interface for Win NT & 2000

Used output format : Internal WAV Routines
Sample format : 44.100 Hz; 16 Bit; Stereo

TOC of the extracted CD

Track | Start | Length | Start sector | End sector
---------------------------------------------------------
1 | 0:00.00 | 6:53.35 | 0 | 31009
2 | 6:53.35 | 3:27.41 | 31010 | 46575
3 | 10:21.01 | 4:02.25 | 46576 | 64750
4 | 14:23.26 | 4:36.24 | 64751 | 85474
5 | 18:59.50 | 3:31.02 | 85475 | 101301
6 | 22:30.52 | 4:20.69 | 101302 | 120870
7 | 26:51.46 | 5:52.67 | 120871 | 147337
8 | 32:44.38 | 5:42.38 | 147338 | 173025
9 | 38:27.01 | 3:45.34 | 173026 | 189934
10 | 42:12.35 | 5:56.27 | 189935 | 216661
11 | 48:08.62 | 2:42.01 | 216662 | 228812
12 | 50:50.63 | 4:33.33 | 228813 | 249320
13 | 55:24.21 | 3:18.14 | 249321 | 264184
14 | 58:42.35 | 4:33.56 | 264185 | 284715
15 | 63:16.16 | 7:19.55 | 284716 | 317695
16 | 70:35.71 | 3:56.32 | 317696 | 335427
17 | 74:32.28 | 3:13.24 | 335428 | 349926

Range status and errors

Selected range

Filename C:\Users\44740\Desktop\Boney M - Music & Video Stars CD.wav

Peak level 99.9 %
Extraction speed 9.7 X
Range quality 100.0 %
Test CRC 0F7931E5
Copy CRC 0F7931E5
Copy OK

No errors occurred

AccurateRip summary

Track 1 accurately ripped (confidence 5) [A1116D1D] (AR v2)
Track 2 accurately ripped (confidence 6) [59E00F96] (AR v2)
Track 3 accurately ripped (confidence 6) [20AC7B57] (AR v2)
Track 4 accurately ripped (confidence 6) [CAB7C14C] (AR v2)
Track 5 accurately ripped (confidence 6) [DCF45E16] (AR v2)
Track 6 accurately ripped (confidence 5) [FF1FF434] (AR v2)
Track 7 accurately ripped (confidence 6) [EF958BA0] (AR v2)
Track 8 accurately ripped (confidence 5) [C0B8A694] (AR v2)
Track 9 accurately ripped (confidence 6) [D8C4F7CA] (AR v2)
Track 10 accurately ripped (confidence 5) [19371565] (AR v2)
Track 11 accurately ripped (confidence 5) [56541AA6] (AR v2)
Track 12 accurately ripped (confidence 4) [CC1D12BB] (AR v2)
Track 13 accurately ripped (confidence 6) [1E5FFDAF] (AR v2)
Track 14 accurately ripped (confidence 5) [162AC5EC] (AR v2)
Track 15 accurately ripped (confidence 5) [5422D823] (AR v2)
Track 16 accurately ripped (confidence 6) [9792A0D3] (AR v2)
Track 17 accurately ripped (confidence 5) [E231A38F] (AR v2)

All tracks accurately ripped

End of status report

---- CUETools DB Plugin V2.1.6

[CTDB TOCID: aNGj47J_xQF60GrOMuKiItssn64-] found
Submit result: aNGj47J_xQF60GrOMuKiItssn64- has been confirmed
Track | CTDB Status
1 | (100/101) Accurately ripped
2 | (100/101) Accurately ripped
3 | (100/101) Accurately ripped
4 | ( 99/101) Accurately ripped
5 | (100/101) Accurately ripped
6 | (100/101) Accurately ripped
7 | ( 99/101) Accurately ripped
8 | ( 99/101) Accurately ripped
9 | (100/101) Accurately ripped
10 | ( 99/101) Accurately ripped
11 | ( 99/101) Accurately ripped
12 | ( 99/101) Accurately ripped
13 | ( 99/101) Accurately ripped
14 | ( 99/101) Accurately ripped
15 | ( 99/101) Accurately ripped
16 | ( 99/101) Accurately ripped
17 | (100/101) Accurately ripped

==== Log checksum D45FE429CF0DC8CEC3160000287B812A236AD667A46F86F850C9A222F8AC437C ====



   Похожие торренты   Размер 
В этой теме нет новых непрочитанных сообщений. VA - Top 40 Boney M. & Friends - Their Ultimate Top 40 Collection (2CD) [2017, Disco, Funk, Soul, Pop, FLAC]

1.11 ГБ

В этой теме нет новых непрочитанных сообщений. Nana Love - Disco Documentary - Full Of Funk (Remastered 2014) [1978, Disco, Reggae, Funk, Soul, FLAC]

347.39 МБ

В этой теме нет новых непрочитанных сообщений. VA - Te Contei? (Remastered 2006) [1978, Disco, Electronic, Latin, Funk, Soul, Pop, FLAC]

275.69 МБ

В этой теме нет новых непрочитанных сообщений. VA - Top Grade Disco Hits (2020) [2019, Electronic, Funk Soul, Pop Rock, Disco, MP3]

1.91 ГБ

В этой теме нет новых непрочитанных сообщений. Eruption - The Best Of Eruption [2017, Funk, Soul, Pop, Disco, FLAC]

713.19 МБ

В этой теме нет новых непрочитанных сообщений. The Rhythm Makers - Soul On Your Side (Remastered 2017) [1976, Disco, Soul, Funk, FLAC]

498.12 МБ

В этой теме нет новых непрочитанных сообщений. VA - Night Air: Funk Disco Set [2018, Disco, Funk, Soul, Club Dance, MP3]

879.36 МБ




Вы не можете начинать темы
Вы не можете отвечать на сообщения
Вы не можете редактировать свои сообщения
Вы не можете удалять свои сообщения
Вы не можете добавлять вложения

Перейти:  
 Вход
ppkBB3cker v.2 © 2008-2014 @ PPK
[ Time : 0.020s | 17 Queries | GZIP : Off ]

Для правообладателей, рекламодателей и роскомнадзора: rstracker[собачка]yandex.ru
cron