img
Planets Sun Sun Sun
Статистика раздачи
Автор: mari | Размер: 220.29 МБ | Добавлен: 20 ноя 2019
Скачать торрент
Скачать торрент

СообщениеДобавлено: 20 ноя 2019 

Rick Wakeman - The Burning

Формат: FLAC, (image + .cue), lossless
Год выпуска: 1981
Страна: UK
Жанр: Electronic, Rock, Prog Rock
Продолжительность: 00:35:42
Описание:

01. Theme From The Burning (3:33)
02. The Chase Continues (Po''s Plane) (3:53)
03. Variations On The Fire (5:13)
04. Shear Terror and More (4:34)
05. The Burning (End Title Theme) (2:01)
06. Campfire Story (3:09)
07. The Fire (3:25)
08. Doin'' It (2:42)
09. Devil''s Creek Breakdown (2:21)
10. The Chase (2:02)
11. Sheer Terror (2:43)

Доп. информация:
Exact Audio Copy V1.0 beta 2 from 29. April 2011

Отчёт EAC об извлечении, выполненном 13. июня 2011, 19:35

Rick Wakeman / The Burning

Дисковод: PLEXTOR DVDR PX-810SA Adapter: 2 ID: 1

Режим чтения : Достоверность
Использование точного потока : Да
Отключение кэша аудио : Да
Использование указателей C2 : Нет

Коррекция смещения при чтении : 48
Способность читать области Lead-in и Lead-out : Нет
Заполнение пропущенных сэмплов тишиной : Да
Удаление блоков с тишиной в начале и конце : Нет
При вычислениях CRC использовались нулевые сэмплы : Да
Интерфейс : Установленный внешний ASPI-интерфейс

Выходной формат : Пользовательский кодировщик
Выбранный битрейт : 32 kBit/s
Качество : Высокий
Добавление ID3-тега : Нет
Утилита сжатия : C:\Program Files\Exact Audio Copy\FLAC\FLAC.EXE
Дополнительные параметры : -8 -V %source%

TOC извлечённого CD

Трек | Старт | Длительность | Начальный сектор | Конечный сектор
---------------------------------------------------------------------
1 | 0:00.00 | 3:33.28 | 0 | 16002
2 | 3:33.28 | 3:53.52 | 16003 | 33529
3 | 7:27.05 | 5:13.55 | 33530 | 57059
4 | 12:40.60 | 4:34.69 | 57060 | 77678
5 | 17:15.54 | 2:01.35 | 77679 | 86788
6 | 19:17.14 | 3:09.20 | 86789 | 100983
7 | 22:26.34 | 3:25.00 | 100984 | 116358
8 | 25:51.34 | 2:42.62 | 116359 | 128570
9 | 28:34.21 | 2:21.65 | 128571 | 139210
10 | 30:56.11 | 2:02.41 | 139211 | 148401
11 | 32:58.52 | 2:43.53 | 148402 | 160679

Характеристики диапазона извлечения и сообщения об ошибках

Выбранный диапазон

Имя файла C:\Program Files\BitComet\Downloads\Rick Wakeman - The Burning (1981)\Rick Wakeman - The Burning.wav

Пиковый уровень 96.1 %
Скорость извлечения 5.3 X
Качество диапазона 99.9 %
CRC теста 2CF688B9
CRC копии 2CF688B9
Копирование... OK

Ошибок не произошло

AccurateRip: сводка

Трек 1 : извлечено точно (доверие 3) [BA8A8299] (AR v1)
Трек 2 : извлечено точно (доверие 3) [2C177410] (AR v1)
Трек 3 : извлечено точно (доверие 3) [5B2FE158] (AR v1)
Трек 4 : извлечено точно (доверие 3) [521A5C18] (AR v1)
Трек 5 : извлечено точно (доверие 3) [721FBB6D] (AR v1)
Трек 6 : извлечено точно (доверие 3) [4F0FFB32] (AR v1)
Трек 7 : извлечено точно (доверие 3) [56101520] (AR v1)
Трек 8 : извлечено точно (доверие 3) [CE699FB4] (AR v1)
Трек 9 : извлечено точно (доверие 3) [26266D1E] (AR v1)
Трек 10 : извлечено точно (доверие 3) [34D91886] (AR v1)
Трек 11 : извлечено точно (доверие 3) [C98EE91C] (AR v1)

Все треки извлечены точно

Конец отчёта

==== Контрольная сумма отчёта C84370007A85FED395A4647D8803F7B01630D48C894056BF1C61E8D0C7301F58 ====




   Похожие торренты   Размер 
В этой теме нет новых непрочитанных сообщений. Rick Wakeman - Lure of the Wild [1994, Prog Rock, Electro, Symphonic Rock, FLAC]

337.77 МБ

В этой теме нет новых непрочитанных сообщений. Rick Wakeman - Journey To The Centre Of The Earth (Vinyl rip 24 bit 96 khz) [1974, Prog Rock, Symphonic Rock, FLAC]

769.14 МБ

В этой теме нет новых непрочитанных сообщений. Rick Wakeman ‎– Prayers [1993, Prog Rock related, Religious, Christian Rock, FLAC]

345.78 МБ

В этой теме нет новых непрочитанных сообщений. Mike Oldfield – The Consequences Of Indecisions (Vinyl rip 24 bit 96 khz) [1981, Rock, Prog Rock, FLAC]

668.87 МБ

В этой теме нет новых непрочитанных сообщений. Traffic - 5 Classic Albums (5CD Box Set) [2017, Prog Rock, Psychedelic Rock, Blues Rock, Jazz-Rock, FLAC]

1.11 ГБ

В этой теме нет новых непрочитанных сообщений. Man Doki Soulmates Allstars (EX. Dschinghis Khan) - Legends Of Rock [2005, Rock, Prog Rock, FLAC]

536.21 МБ

В этой теме нет новых непрочитанных сообщений. Saffir Garland - La Calma Dei Malvagi [2018, Art Rock, Prog Rock, Folk Rock, FLAC]

205.87 МБ




Вы не можете начинать темы
Вы не можете отвечать на сообщения
Вы не можете редактировать свои сообщения
Вы не можете удалять свои сообщения
Вы не можете добавлять вложения

Перейти:  
 Вход
ppkBB3cker v.2 © 2008-2014 @ PPK
[ Time : 0.025s | 19 Queries | GZIP : Off ]

Для правообладателей, рекламодателей и роскомнадзора: rstracker[собачка]yandex.ru
cron