img
Planets Sun Sun Sun
Статистика раздачи
Автор: mari | Размер: 384.56 МБ | Добавлен: 27 ноя 2019
Скачать торрент
Скачать торрент

СообщениеДобавлено: 27 ноя 2019 

Claudia Mori - Claudia Mori Collection

Формат: FLAC, (image + .cue), lossless
Год выпуска: 2009
Страна: Italy
Жанр: Pop
Продолжительность: 00:58:24
Описание:

01. Buonasera Dottore
02. Non Succederà Più
03. Un''Altra Volta Chiudi La Porta (Chiudi La Porta)
04. Dal Dire Al Fare
05. E'' Amore
06. Stringimi A Te (Everything''s All Right)
07. Nata Per Me
08. Hei... Hei... Hei...
09. Il Principe
10. Io Bella Figlia (Tu Meraviglia) (Ventana)
11. Seguirò Chi Mi Ama (Is It Love)
12. Amarti, Volerti, Pensarti
13. Chi Non Lavora Non Fa L''Amore
14. Quello Che Ti Dico (The Locomotion)
15. Non Succederà Più (Deelay Remix 2009)
16. Nata Per Me (Versione 2009)
Доп. информация:
Exact Audio Copy V1.0 beta 3 from 29. August 2011

EAC extraction logfile from 24. November 2019, 18:51

Claudia Mori / Claudia Mori Collection

Used drive : TSSTcorpCDDVDW SH-216DB Adapter: 0 ID: 0

Read mode : Secure
Utilize accurate stream : Yes
Defeat audio cache : Yes
Make use of C2 pointers : No

Read offset correction : 6
Overread into Lead-In and Lead-Out : No
Fill up missing offset samples with silence : Yes
Delete leading and trailing silent blocks : No
Null samples used in CRC calculations : Yes
Used interface : Native Win32 interface for Win NT & 2000

Used output format : User Defined Encoder
Selected bitrate : 1024 kBit/s
Quality : High
Add ID3 tag : No
Command line compressor : C:\Program Files (x86)\Exact Audio Copy\Flac\flac.exe
Additional command line options : -V -8 -T "Date=%year%" -T "Genre=%genre%" %source%

TOC of the extracted CD

Track | Start | Length | Start sector | End sector
---------------------------------------------------------
1 | 0:00.00 | 4:06.55 | 0 | 18504
2 | 4:06.55 | 4:17.21 | 18505 | 37800
3 | 8:24.01 | 4:25.62 | 37801 | 57737
4 | 12:49.63 | 3:37.41 | 57738 | 74053
5 | 16:27.29 | 3:39.25 | 74054 | 90503
6 | 20:06.54 | 3:28.70 | 90504 | 106173
7 | 23:35.49 | 3:01.51 | 106174 | 119799
8 | 26:37.25 | 4:01.71 | 119800 | 137945
9 | 30:39.21 | 4:06.06 | 137946 | 156401
10 | 34:45.27 | 4:52.27 | 156402 | 178328
11 | 39:37.54 | 3:39.09 | 178329 | 194762
12 | 43:16.63 | 2:57.59 | 194763 | 208096
13 | 46:14.47 | 3:00.52 | 208097 | 221648
14 | 49:15.24 | 2:17.74 | 221649 | 231997
15 | 51:33.23 | 3:40.30 | 231998 | 248527
16 | 55:13.53 | 3:10.37 | 248528 | 262814

Range status and errors

Selected range

Filename R:\Private\My Audio Ripps\Claudia Mori - Claudia Mori Collection.wav

Peak level 100.0 %
Extraction speed 3.2 X
Range quality 100.0 %
Test CRC F8977631
Copy CRC F8977631
Copy OK

No errors occurred

AccurateRip summary

Track 1 not present in database
Track 2 not present in database
Track 3 not present in database
Track 4 not present in database
Track 5 not present in database
Track 6 not present in database
Track 7 not present in database
Track 8 not present in database
Track 9 not present in database
Track 10 not present in database
Track 11 not present in database
Track 12 not present in database
Track 13 not present in database
Track 14 not present in database
Track 15 not present in database
Track 16 not present in database

None of the tracks are present in the AccurateRip database

End of status report

==== Log checksum 4A053AE16D6E7AC0A8FE16B4D9FAB899DE515A11438079413CCEBB4CA1D4F908 ====



   Похожие торренты   Размер 
В этой теме нет новых непрочитанных сообщений. Claudia Mori - Collezione (1986) MP3

122.48 МБ

В этой теме нет новых непрочитанных сообщений. Claudia Aurora - Mulher do Norte [2016, Fado, MP3] / Folklore/ Folk/ Народная

111.86 МБ

В этой теме нет новых непрочитанных сообщений. Fools Garden - High Times - The Best Of [2009, Rock, Pop, Pop Rock, FLAC]

429.48 МБ

В этой теме нет новых непрочитанных сообщений. VA - Dance Hits Collection 90s Vol.4 [2019, Pop, Disco, MP3] / Pop/ Eurodance/ Disco/ Synthpop/ Spacesynth/ Electronic

1.09 ГБ

В этой теме нет новых непрочитанных сообщений. Pet Shop Boys - Dreamland (CD, Single) [2019, Synth-Pop, Pop, MP3] / Pop/ Eurodance/ Disco/ Synthpop/ Spacesynth/ Electronic

50.41 МБ

В этой теме нет новых непрочитанных сообщений. Ace Of Base - Gold [2019, Synth-Pop, Euro Pop, FLAC]

1.26 ГБ

В этой теме нет новых непрочитанных сообщений. VA - Ultimate Eighties [1998, Pop, New Wave, Electro, Synth-Pop, FLAC]

493.24 МБ




Вы не можете начинать темы
Вы не можете отвечать на сообщения
Вы не можете редактировать свои сообщения
Вы не можете удалять свои сообщения
Вы не можете добавлять вложения

Перейти:  
 Вход
ppkBB3cker v.2 © 2008-2014 @ PPK
[ Time : 0.322s | 19 Queries | GZIP : Off ]

Для правообладателей, рекламодателей и роскомнадзора: rstracker[собачка]yandex.ru
cron