img
Planets Sun Sun Sun
Статистика раздачи
Автор: mari | Размер: 547.54 МБ | Добавлен: 27 ноя 2019
Скачать торрент
Скачать торрент

СообщениеДобавлено: 27 ноя 2019 

Dan McCafferty - Last Testament

Формат: FLAC, (image + .cue), lossless
Год выпуска: 2019
Страна: England
Жанр: Rock
Продолжительность: 01:06:02
Описание:

01. You And Me
02. Why
03. Looking Back
04. Tell Me
05. I Can''t Find The One For Me
06. Look At The Song In My Eyes
07. Home Is Where Your Heart Is
08. My Baby
09. Refugee
10. Mafia
11. Sunshine
12. Nobody''s Home
13. Right To Fail
14. Bring It On Back
15. You And Me (Acoustic)

Доп. информация:
Exact Audio Copy V1.3 from 2. September 2016

EAC extraction logfile from 12. November 2019, 16:03

Dan McCafferty / Last Testament

Used drive : ASUS DRW-24D5MT Adapter: 1 ID: 1

Read mode : Secure
Utilize accurate stream : Yes
Defeat audio cache : Yes
Make use of C2 pointers : No

Read offset correction : 6
Overread into Lead-In and Lead-Out : No
Fill up missing offset samples with silence : Yes
Delete leading and trailing silent blocks : No
Null samples used in CRC calculations : Yes
Used interface : Installed external ASPI interface

Used output format : User Defined Encoder
Selected bitrate : 128 kBit/s
Quality : High
Add ID3 tag : No
Command line compressor : C:\Program Files (x86)\Exact Audio Copy\Flac\flac.exe
Additional command line options : -8 -V -T "TITLE=%title%" -T "ARTIST=%artist%" -T "ALBUMARTIST=%albumartist%" -T "ALBUM=%albumtitle%" -T "DATE=%year%" -T "TRACKNUMBER=%tracknr%" -T "TRACKTOTAL=%numtracks%" -T "GENRE=%genre%" -T "COMMENT=%comment%" -T "PERFORMER=%albuminterpret%" -T "COMPOSER=%composer%" %source% -o %dest%

TOC of the extracted CD

Track | Start | Length | Start sector | End sector
---------------------------------------------------------
1 | 0:00.00 | 4:18.15 | 0 | 19364
2 | 4:18.15 | 5:54.28 | 19365 | 45942
3 | 10:12.43 | 3:27.45 | 45943 | 61512
4 | 13:40.13 | 4:49.00 | 61513 | 83187
5 | 18:29.13 | 4:08.50 | 83188 | 101837
6 | 22:37.63 | 4:26.34 | 101838 | 121821
7 | 27:04.22 | 4:47.62 | 121822 | 143408
8 | 31:52.09 | 2:38.14 | 143409 | 155272
9 | 34:30.23 | 5:24.63 | 155273 | 179635
10 | 39:55.11 | 6:56.01 | 179636 | 210836
11 | 46:51.12 | 3:34.70 | 210837 | 226956
12 | 50:26.07 | 3:27.41 | 226957 | 242522
13 | 53:53.48 | 2:45.68 | 242523 | 254965
14 | 56:39.41 | 4:16.01 | 254966 | 274166
15 | 60:55.42 | 5:16.10 | 274167 | 297876

Range status and errors

Selected range

Filename C:\Users\breaker65\Desktop\2019. Last Testament\Dan McCafferty - Last Testament.wav

Peak level 100.0 %
Extraction speed 3.3 X
Range quality 99.9 %
Test CRC 823E4723
Copy CRC 823E4723
Copy OK

No errors occurred

AccurateRip summary

Track 1 not present in database
Track 2 not present in database
Track 3 not present in database
Track 4 not present in database
Track 5 not present in database
Track 6 not present in database
Track 7 not present in database
Track 8 not present in database
Track 9 not present in database
Track 10 not present in database
Track 11 not present in database
Track 12 not present in database
Track 13 not present in database
Track 14 not present in database
Track 15 not present in database

None of the tracks are present in the AccurateRip database

End of status report

---- CUETools DB Plugin V2.1.6

[CTDB TOCID: 8gpG1bDv.BMR2DxFL5DTNUDq36Q-] found
Submit result: 8gpG1bDv.BMR2DxFL5DTNUDq36Q- has been confirmed
Track | CTDB Status
1 | (3/4) Accurately ripped
2 | (4/4) Accurately ripped
3 | (3/4) Accurately ripped
4 | (4/4) Accurately ripped
5 | (4/4) Accurately ripped
6 | (4/4) Accurately ripped
7 | (4/4) Accurately ripped
8 | (4/4) Accurately ripped
9 | (4/4) Accurately ripped
10 | (4/4) Accurately ripped
11 | (4/4) Accurately ripped
12 | (4/4) Accurately ripped
13 | (4/4) Accurately ripped
14 | (4/4) Accurately ripped
15 | (4/4) Accurately ripped

==== Log checksum 6364F52734CEF2303DAE2542B255BD659596935C348ADA9C8ADD9657ABF0C84F ====




   Похожие торренты   Размер 
В этой теме нет новых непрочитанных сообщений. Dan McCafferty - Last Testament [2019, Rock, FLAC]

397.49 МБ

В этой теме нет новых непрочитанных сообщений. Dan McCafferty (Ex-Nazareth) - Last Testament [2019, Classic Rock, Hard Rock, MP3] / Rock/ Punk/ Metal/ Alternative

152.05 МБ

В этой теме нет новых непрочитанных сообщений. Dan McCafferty - Dan McCafferty (1975) APE

221.01 МБ

В этой теме нет новых непрочитанных сообщений. Testament - The Very Best Of Testament (2015) MP3

316.67 МБ

В этой теме нет новых непрочитанных сообщений. Dan McCafferty - Into The Ring [Remastered] (1987/2002) FLAC

425.19 МБ

В этой теме нет новых непрочитанных сообщений. Testament - Дискография (1987-2016) FLAC

12.25 ГБ

В этой теме нет новых непрочитанных сообщений. Testament - Дискография (1987-2013) FLAC

10.46 ГБ




Вы не можете начинать темы
Вы не можете отвечать на сообщения
Вы не можете редактировать свои сообщения
Вы не можете удалять свои сообщения
Вы не можете добавлять вложения

Перейти:  
 Вход
ppkBB3cker v.2 © 2008-2014 @ PPK
[ Time : 0.017s | 16 Queries | GZIP : Off ]

Для правообладателей, рекламодателей и роскомнадзора: rstracker[собачка]yandex.ru
cron