img
Planets Sun Sun Sun
Статистика раздачи
Автор: mari | Размер: 338.45 МБ | Добавлен: 28 июл 2013
Скачать торрент
Скачать торрент

СообщениеДобавлено: 28 июл 2013 

#77

Theatre Of Tragedy - Forever Is The World
Год выпуска диска:2009
Стиль:Gothic Metal
Формат/Кодек:FLAC(image+.cue)
Битрейт аудио:lossless
Продолжительность:49:05

Трек-лист:
1. Hide and Seek (5:24)
2. A Nine Days Wonder (5:17)
3. Revolution (4:04)
4. Transition (4:59)
5. Hollow (6:10)
6. Astray (3:41)
7. Frozen (5:20)
8. Illusions (4:45)
9. Deadland (4:40)
10. Forever is the World (4:40)

Exact Audio Copy V0.99 prebeta 5 from 4. May 2009
Отчёт EAC об извлечении, выполненном 24. октября 2009, 14:51
Theatre Of Tragedy / Forever Is The World
Дисковод: Optiarc DVD RW AD-7200S Adapter: 3 ID: 2
Режим чтения : Достоверность
Использование точного потока : Да
Отключение кэша аудио : Да
Использование указателей C2 : Нет
Коррекция смещения при чтении : 66
Способность читать области Lead-in и Lead-out : Нет
Заполнение пропущенных сэмплов тишиной : Да
Удаление блоков с тишиной в начале и конце : Нет
При вычислениях CRC использовались нулевые сэмплы : Да
Интерфейс : Встроенный Win32-интерфейс для Win NT/2000
Выходной формат : Внутренние WAV-операции
Формат сэмплов : 44.100 Гц; 16 бит; стерео
TOC извлечённого CD
Трек | Старт | Длительность | Начальный сектор | Конечный сектор
---------------------------------------------------------------------
1 | 0:00.00 | 5:24.13 | 0 | 24312
2 | 5:24.13 | 5:17.50 | 24313 | 48137
3 | 10:41.63 | 4:04.41 | 48138 | 66478
4 | 14:46.29 | 4:59.37 | 66479 | 88940
5 | 19:45.66 | 6:10.48 | 88941 | 116738
6 | 25:56.39 | 3:41.73 | 116739 | 133386
7 | 29:38.37 | 5:20.25 | 133387 | 157411
8 | 34:58.62 | 4:45.07 | 157412 | 178793
9 | 39:43.69 | 4:40.37 | 178794 | 199830
10 | 44:24.31 | 4:40.63 | 199831 | 220893
Характеристики диапазона извлечения и сообщения об ошибках
Выбранный диапазон
Имя файла E:МузыкаTheatre Of Tragedy - Forever Is The WorldTheatre Of Tragedy - Forever Is The World.wav
Пиковый уровень 100.0 %
Качество диапазона 100.0 %
CRC копии 05AEED76
Копирование... OK
Ошибок не произошло
Конец отчёта



   Похожие торренты   Размер 
В этой теме нет новых непрочитанных сообщений. Beautiful World - Forever (1996) MP3

143.96 МБ

В этой теме нет новых непрочитанных сообщений. Bolshoi Theatre Orchestra - 20th Century Russian Classical Hits (2016) FLAC

350.09 МБ

В этой теме нет новых непрочитанных сообщений. Ballet Masterpieces: The World's Favorite Ballets and Ballet Suites [Box set. 35CD] (2009) FLAC

9.52 ГБ

В этой теме нет новых непрочитанных сообщений. Doro - Forever Warriors, Forever United [2018, Hard & Heavy, MP3] / Rock/ Punk/ Metal/ Alternative

246.66 МБ

В этой теме нет новых непрочитанных сообщений. VA - The Essence Of World Music, Edition One [The Finest Selection Of Songs From Around The World] (2015) FLAC

554.21 МБ

В этой теме нет новых непрочитанных сообщений. Tragedy Khadafi - The AuraPort [2016, Underground Hip-Hop, MP3]

178.6 МБ

В этой теме нет новых непрочитанных сообщений. Rebellion - A Tragedy In Steel Part II: Shakespeare's King Lear (2018) MP3

153.27 МБ




Вы не можете начинать темы
Вы не можете отвечать на сообщения
Вы не можете редактировать свои сообщения
Вы не можете удалять свои сообщения
Вы не можете добавлять вложения

Перейти:  
 Вход
ppkBB3cker v.2 © 2008-2014 @ PPK
[ Time : 0.027s | 16 Queries | GZIP : Off ]

Для правообладателей, рекламодателей и роскомнадзора: rstracker[собачка]yandex.ru
cron