img
Planets Sun Sun Sun
Статистика раздачи
Автор: mari | Размер: 534.98 МБ | Добавлен: 28 июл 2013
Скачать торрент
Скачать торрент

СообщениеДобавлено: 28 июл 2013 

#77

Steve Vai - Where The Wild Things Are
Год выпуска диска:2009
Стиль:Instrumental Guitar Rock
Формат/Кодек:FLAC (tracks+.cue)
Битрейт аудио:lossless
Продолжительность:1:17:57

Трек-лист:

1. Paint Me Your Face (1:59)
2. Now We Run (6:37)
3. Oooo (5:07)
4. Building The Church (8:35)
5. Tender Surrender (6:18)
6. Band Intros (2:27)
7. Fire Wall (6:02)
8. Freak Show Excess (11:00)
9. Die To Live (6:30)
10. All About Eve (5:08)
11. Gary 7 (0:48)
12. Treasure Island (1:54)
13. Angel Food (6:23)
14. Taurus Bulba (6:48)
15. Par Brahm (2:15)

Концертный альбом великого гитариста.

Exact Audio Copy V0.99 prebeta 4 from 23. January 2008

EAC extraction logfile from 6. October 2009, 21:17

Stevie Vai / Where The Wild Things Are

Used drive : HL-DT-STDVD-RAM GH40L Adapter: 2 ID: 1

Read mode : Secure
Utilize accurate stream : Yes
Defeat audio cache : Yes
Make use of C2 pointers : No

Read offset correction : 667
Overread into Lead-In and Lead-Out : No
Fill up missing offset samples with silence : Yes
Delete leading and trailing silent blocks : No
Null samples used in CRC calculations : Yes
Used interface : Native Win32 interface for Win NT & 2000
Gap handling : Appended to previous track

Used output format : User Defined Encoder
Selected bitrate : 320 kBit/s
Quality : High
Add ID3 tag : No
Command line compressor : C:Program FilesExact Audio CopyFlacflac.exe
Additional command line options : -V -8 -T "artist=%a" -T "title=%t" -T "album=%g" -T "date=%y" -T "tracknumber=%n" -T "genre=%m" %s
TOC of the extracted CD

Track | Start | Length | Start sector | End sector
---------------------------------------------------------
1 | 0:00.00 | 1:59.21 | 0 | 8945
2 | 1:59.21 | 6:37.49 | 8946 | 38769
3 | 8:36.70 | 5:07.17 | 38770 | 61811
4 | 13:44.12 | 8:35.57 | 61812 | 100493
5 | 22:19.69 | 6:18.66 | 100494 | 128909
6 | 28:38.60 | 2:27.30 | 128910 | 139964
7 | 31:06.15 | 6:02.12 | 139965 | 167126
8 | 37:08.27 | 11:00.61 | 167127 | 216687
9 | 48:09.13 | 6:30.23 | 216688 | 245960
10 | 54:39.36 | 5:08.68 | 245961 | 269128
11 | 59:48.29 | 0:48.06 | 269129 | 272734
12 | 60:36.35 | 1:54.01 | 272735 | 281285
13 | 62:30.36 | 6:23.22 | 281286 | 310032
14 | 68:53.58 | 6:47.74 | 310033 | 340631
15 | 75:41.57 | 2:14.72 | 340632 | 350753
Track 1

Filename C:EAC RipsStevie Vai - 2009 - Where The Wild Things Are�1 - Paint Me Your Face.wav

Pre-gap length 0:00:02.00

Peak level 100.0 %
Track quality 100.0 %
Test CRC A72F6507
Copy CRC A72F6507
Track not present in AccurateRip database
Copy OK

Track 2

Filename C:EAC RipsStevie Vai - 2009 - Where The Wild Things Are�2 - Now We Run.wav

Peak level 100.0 %
Track quality 100.0 %
Test CRC E55EC479
Copy CRC E55EC479
Track not present in AccurateRip database
Copy OK

Track 3

Filename C:EAC RipsStevie Vai - 2009 - Where The Wild Things Are�3 - Oooo.wav

Peak level 100.0 %
Track quality 100.0 %
Test CRC 78F01E7D
Copy CRC 78F01E7D
Track not present in AccurateRip database
Copy OK

Track 4

Filename C:EAC RipsStevie Vai - 2009 - Where The Wild Things Are�4 - Building The Church.wav

Peak level 100.0 %
Track quality 100.0 %
Test CRC F0754BE7
Copy CRC F0754BE7
Track not present in AccurateRip database
Copy OK

Track 5

Filename C:EAC RipsStevie Vai - 2009 - Where The Wild Things Are�5 - Tender Surrender.wav

Peak level 100.0 %
Track quality 99.9 %
Test CRC 17AF5184
Copy CRC 17AF5184
Track not present in AccurateRip database
Copy OK

Track 6

Filename C:EAC RipsStevie Vai - 2009 - Where The Wild Things Are�6 - Band Intros.wav

Peak level 100.0 %
Track quality 99.9 %
Test CRC 3E1E9957
Copy CRC 3E1E9957
Track not present in AccurateRip database
Copy OK

Track 7

Filename C:EAC RipsStevie Vai - 2009 - Where The Wild Things Are�7 - Fire Wall.wav

Peak level 100.0 %
Track quality 100.0 %
Test CRC DF7057A0
Copy CRC DF7057A0
Track not present in AccurateRip database
Copy OK

Track 8

Filename C:EAC RipsStevie Vai - 2009 - Where The Wild Things Are�8 - Freak Show Excess.wav

Peak level 100.0 %
Track quality 99.9 %
Test CRC 1141E38B
Copy CRC 1141E38B
Track not present in AccurateRip database
Copy OK

Track 9

Filename C:EAC RipsStevie Vai - 2009 - Where The Wild Things Are�9 - Die To Live.wav

Peak level 100.0 %
Track quality 100.0 %
Test CRC F05D162C
Copy CRC F05D162C
Track not present in AccurateRip database
Copy OK

Track 10

Filename C:EAC RipsStevie Vai - 2009 - Where The Wild Things Are10 - All About Eve.wav

Peak level 100.0 %
Track quality 100.0 %
Test CRC 02C69B26
Copy CRC 02C69B26
Track not present in AccurateRip database
Copy OK

Track 11

Filename C:EAC RipsStevie Vai - 2009 - Where The Wild Things Are11 - Gary 7.wav

Peak level 100.0 %
Track quality 100.0 %
Test CRC 217B16D7
Copy CRC 217B16D7
Track not present in AccurateRip database
Copy OK

Track 12

Filename C:EAC RipsStevie Vai - 2009 - Where The Wild Things Are12 - Treasure Island.wav

Peak level 100.0 %
Track quality 100.0 %
Test CRC 92D3C91E
Copy CRC 92D3C91E
Track not present in AccurateRip database
Copy OK

Track 13

Filename C:EAC RipsStevie Vai - 2009 - Where The Wild Things Are13 - Angel Food.wav

Peak level 100.0 %
Track quality 100.0 %
Test CRC E2FFB5A9
Copy CRC E2FFB5A9
Track not present in AccurateRip database
Copy OK

Track 14

Filename C:EAC RipsStevie Vai - 2009 - Where The Wild Things Are14 - Tarus Bulba.wav

Peak level 100.0 %
Track quality 100.0 %
Test CRC E521E508
Copy CRC E521E508
Track not present in AccurateRip database
Copy OK

Track 15

Filename C:EAC RipsStevie Vai - 2009 - Where The Wild Things Are15 - Par Brahm.wav

Peak level 100.0 %
Track quality 100.0 %
Test CRC 5632DEE6
Copy CRC 5632DEE6
Track not present in AccurateRip database
Copy OK
None of the tracks are present in the AccurateRip database

No errors occurred

End of status report



   Похожие торренты   Размер 
В этой теме нет новых непрочитанных сообщений. Ladyhawke - Wild Things (2016) FLAC

263.09 МБ

В этой теме нет новых непрочитанных сообщений. Joni Mitchell - Wild Things Run Fast (1982) MP3

83.48 МБ

В этой теме нет новых непрочитанных сообщений. VA - ReUnation - A Tribute To Running Wild (2009) MP3

358.35 МБ

В этой теме нет новых непрочитанных сообщений. Pretty Wild - Дискография [2009 - 2019, Glam Hard Rock, MP3]

297.89 МБ

В этой теме нет новых непрочитанных сообщений. Estival Jazz Lugano - Steve Hackett Electric Band (2009) HDTV 720 от Brazzass

5.01 ГБ

В этой теме нет новых непрочитанных сообщений. ТАТУ - All the Things She Said [2002, Поп, FLAC]

542.48 МБ

В этой теме нет новых непрочитанных сообщений. Dark Sleeper - Made for Better Things (2015) FLAC

273.63 МБ




Вы не можете начинать темы
Вы не можете отвечать на сообщения
Вы не можете редактировать свои сообщения
Вы не можете удалять свои сообщения
Вы не можете добавлять вложения

Перейти:  
 Вход
ppkBB3cker v.2 © 2008-2014 @ PPK
[ Time : 0.022s | 17 Queries | GZIP : Off ]

Для правообладателей, рекламодателей и роскомнадзора: rstracker[собачка]yandex.ru
cron