img
Planets Sun Sun Sun
Статистика раздачи
Автор: mari | Размер: 296.37 МБ | Добавлен: 28 июл 2013
Скачать торрент
Скачать торрент

СообщениеДобавлено: 28 июл 2013 

#77

Slayer - World Painted Blood
Год выпуска диска: 2009
Стиль: Thrash Metal
Формат/Кодек: FLAC (tracks+.cue)
Битрейт аудио: lossless
Продолжительность: 39:50

Трек-лист:
1. World Painted Blood (5:53)
2. Unit 731 (2:39)
3. Snuff (3:42)
4. Beauty Through Order (4:36)
5. Hate Worldwide (2:52)
6. Public Display Of Dismemberment (2:34)
7. Human Strain (3:09)
8. Americon (3:22)
9. Psychopathy Red (2:26)
10.Playing With Dolls (4:13)
11.Not Of This God (4:20)
Exact Audio Copy V0.99 prebeta 5 from 4. May 2009
EAC extraction logfile from 29. October 2009, 18:27
Slayer / World Painted Blood
Used drive : HL-DT-STDVD-ROM GDR8163B Adapter: 0 ID: 0
Read mode : Secure
Utilize accurate stream : Yes
Defeat audio cache : Yes
Make use of C2 pointers : No
Read offset correction : 102
Overread into Lead-In and Lead-Out : No
Fill up missing offset samples with silence : Yes
Delete leading and trailing silent blocks : No
Null samples used in CRC calculations : Yes
Used interface : Native Win32 interface for Win NT & 2000
Gap handling : Appended to previous track
Used output format : User Defined Encoder
Selected bitrate : 320 kBit/s
Quality : High
Add ID3 tag : No
Command line compressor : C:ProgrammeExact Audio CopyFlacflac.exe
Additional command line options : -5 -T "Artist=%a" -T "Title=%t" -T "Album=%g" -T "Date=%y" -T "Tracknumber=%n" -T "Genre=%m" %s -o %d
TOC of the extracted CD
Track | Start | Length | Start sector | End sector
---------------------------------------------------------
1 | 0:00.00 | 5:53.10 | 0 | 26484
2 | 5:53.10 | 2:39.62 | 26485 | 38471
3 | 8:32.72 | 3:42.20 | 38472 | 55141
4 | 12:15.17 | 4:36.48 | 55142 | 75889
5 | 16:51.65 | 2:52.02 | 75890 | 88791
6 | 19:43.67 | 2:34.62 | 88792 | 100403
7 | 22:18.54 | 3:09.06 | 100404 | 114584
8 | 25:27.60 | 3:22.60 | 114585 | 129794
9 | 28:50.45 | 2:26.32 | 129795 | 140776
10 | 31:17.02 | 4:13.65 | 140777 | 159816
11 | 35:30.67 | 4:20.25 | 159817 | 179341
Track 1
Filename D:EACFLAC RippedWorld Painted BloodWorld Painted Blood�1-World Painted Blood.wav
Pre-gap length 0:00:02.00
Peak level 100.0 %
Track quality 100.0 %
Test CRC 6B1CF84C
Copy CRC 6B1CF84C
Track not present in AccurateRip database
Copy OK
Track 2
Filename D:EACFLAC RippedWorld Painted BloodWorld Painted Blood�2-Unit.wav
Peak level 100.0 %
Track quality 100.0 %
Test CRC F6127338
Copy CRC F6127338
Track not present in AccurateRip database
Copy OK
Track 3
Filename D:EACFLAC RippedWorld Painted BloodWorld Painted Blood�3-Snuff.wav
Peak level 100.0 %
Track quality 100.0 %
Test CRC 32ACB3C5
Copy CRC 32ACB3C5
Track not present in AccurateRip database
Copy OK
Track 4
Filename D:EACFLAC RippedWorld Painted BloodWorld Painted Blood�4-Beauty Through Order.wav
Peak level 100.0 %
Track quality 100.0 %
Test CRC 9E9ABEAE
Copy CRC 9E9ABEAE
Track not present in AccurateRip database
Copy OK
Track 5
Filename D:EACFLAC RippedWorld Painted BloodWorld Painted Blood�5-Hate Worldwide.wav
Peak level 100.0 %
Track quality 99.9 %
Test CRC F49FA055
Copy CRC F49FA055
Track not present in AccurateRip database
Copy OK
Track 6
Filename D:EACFLAC RippedWorld Painted BloodWorld Painted Blood�6-Public Display Of Dismemberment.wav
Peak level 100.0 %
Track quality 100.0 %
Test CRC 6168F7ED
Copy CRC 6168F7ED
Track not present in AccurateRip database
Copy OK
Track 7
Filename D:EACFLAC RippedWorld Painted BloodWorld Painted Blood�7-Human Strain.wav
Peak level 100.0 %
Track quality 100.0 %
Test CRC 15698734
Copy CRC 15698734
Track not present in AccurateRip database
Copy OK
Track 8
Filename D:EACFLAC RippedWorld Painted BloodWorld Painted Blood�8-Americon.wav
Peak level 100.0 %
Track quality 100.0 %
Test CRC D09CD27E
Copy CRC D09CD27E
Track not present in AccurateRip database
Copy OK
Track 9
Filename D:EACFLAC RippedWorld Painted BloodWorld Painted Blood�9-Psychopathy Red.wav
Peak level 100.0 %
Track quality 99.9 %
Test CRC F13B42F7
Copy CRC F13B42F7
Track not present in AccurateRip database
Copy OK
Track 10
Filename D:EACFLAC RippedWorld Painted BloodWorld Painted Blood10-Playing With Dolls.wav
Peak level 100.0 %
Track quality 100.0 %
Test CRC 6760772A
Copy CRC 6760772A
Track not present in AccurateRip database
Copy OK
Track 11
Filename D:EACFLAC RippedWorld Painted BloodWorld Painted Blood11-Not Of This God.wav
Peak level 100.0 %
Track quality 99.9 %
Test CRC ED455FF4
Copy CRC ED455FF4
Track not present in AccurateRip database
Copy OK
None of the tracks are present in the AccurateRip database
No errors occurred
End of status report


Дополнительная информация:
Slayer (ˈsleɪə; русск. Убийца) — известная американская группа, играющая в стиле трэш-метал. Группа была основана в 1981 году гитаристами Джеффом Ханнеманом (англ. Jeff Hanneman) и Керри Кингом (англ. Kerry King). Slayer возглавили музыкальное движение американского трэш-метала после выпуска своего альбома Reign in Blood (1986), который считается лучшим достижением группы и одним из лучших в трэш-метале в целом, признан «классикой трэш-метала» журналом Classic Rock[2] и «самым тяжёлым альбомом всех времён» журналом «Kerrang!». [3] Slayer входит в «большую четвёрку трэш-метала» вместе с группами Metallica, Megadeth и Anthrax.
Характерные черты музыки Slayer — быстрый темп, скоростные гитарные соло и тремоло; двойная бас-бочка (бас-барабан) (англ. Double bass drum) и кричащий вокал. Обложки альбомов и тексты песен группы связаны со смертью, адом, сатанизмом, насилием, войной, серийными убийцами, геноцидом и зачастую носят антирелигиозный характер, за что группу очень жёстко критиковали религиозные деятели и простые слушатели. По тем же причинам выпуск альбомов Slayer задерживался, а их продажа вообще запрещалась во многих странах мира.
За свою карьеру Slayer выпустили девять студийных альбомов (четыре из которых получили статус «золотых» в США), два мини-альбома, два концертных альбома, четыре DVD, один бокс-сет и шестнадцать синглов. Группа три раза номинировалась на Грэмми, получив приз в 2007 году (песня «Eyes of the Insane») и в 2008 году («Final Six»), а также являлась хедлайнером многочисленных музыкальных фестивалей, включая Ozzfest, Hellfest Summer Open Air, Gods Of Metal и Tuska Open Air.



   Похожие торренты   Размер 
В этой теме нет новых непрочитанных сообщений. Blood Box - A World of Hurt (1997) FLAC

379.47 МБ

В этой теме нет новых непрочитанных сообщений. Painted Palms - Horizons (2015) FLAC

262.87 МБ

В этой теме нет новых непрочитанных сообщений. Blood Box - A World of Hurt (1997) M4A

125.55 МБ

В этой теме нет новых непрочитанных сообщений. Slayer - Repentless (2015) FLAC

413.57 МБ

В этой теме нет новых непрочитанных сообщений. The Debauchery Blood God - Blood Is My Trademark (2CD Digipack Ltd. Edition) (2014) MP3

257.53 МБ

В этой теме нет новых непрочитанных сообщений. Ballet Masterpieces: The World's Favorite Ballets and Ballet Suites [Box set. 35CD] (2009) FLAC

9.52 ГБ

В этой теме нет новых непрочитанных сообщений. VA - The Essence Of World Music, Edition One [The Finest Selection Of Songs From Around The World] (2015) FLAC

554.21 МБ




Вы не можете начинать темы
Вы не можете отвечать на сообщения
Вы не можете редактировать свои сообщения
Вы не можете удалять свои сообщения
Вы не можете добавлять вложения

Перейти:  
 Вход
ppkBB3cker v.2 © 2008-2014 @ PPK
[ Time : 0.024s | 16 Queries | GZIP : Off ]

Для правообладателей, рекламодателей и роскомнадзора: rstracker[собачка]yandex.ru
cron