img
Planets Sun Sun Sun
Статистика раздачи
Автор: mari | Размер: 368.07 МБ | Добавлен: 28 июл 2013
Скачать торрент
Скачать торрент

СообщениеДобавлено: 28 июл 2013 

#77

Bon Jovi - The Circle
Год выпуска диска: 2009
Стиль: Hard rock
Формат/Кодек: FLAC(tracks+.cue)
Битрейт аудио: lossless
Продолжительность: 54:41

Трек-лист:
1. We Werent Born To Follow (4:03)
2. When We Were Beautiful (5:18)
3. Work For The Working Man (4:04)
4. Superman Tonight (5:12)
5. Bullet (3:50)
6. Thorn In My Side (4:05)
7. Live Before You Die (4:18)
8. Brokenpromiseland (4:57)
9. Loves The Only Rule (4:38)
10.Fast Cars (3:16)
11.Happy Now (4:21)
12.Learn To Love (4:39)

Exact Audio Copy V0.99 prebeta 4 from 23. January 2008
EAC extraction logfile from 2. November 2009, 15:06
Bon Jovi / The Circle
Used drive : PIONEER DVD-RW DVR-111D Adapter: 0 ID: 1
Read mode : Secure
Utilize accurate stream : Yes
Defeat audio cache : Yes
Make use of C2 pointers : No
Read offset correction : 48
Overread into Lead-In and Lead-Out : No
Fill up missing offset samples with silence : Yes
Delete leading and trailing silent blocks : No
Null samples used in CRC calculations : Yes
Used interface : Native Win32 interface for Win NT & 2000
Gap handling : Appended to previous track
Used output format : Internal WAV Routines
Sample format : 44.100 Hz; 16 Bit; Stereo
TOC of the extracted CD
Track | Start | Length | Start sector | End sector
---------------------------------------------------------
1 | 0:00.00 | 4:03.37 | 0 | 18261
2 | 4:03.37 | 5:18.07 | 18262 | 42118
3 | 9:21.44 | 4:04.04 | 42119 | 60422
4 | 13:25.48 | 5:12.65 | 60423 | 83887
5 | 18:38.38 | 3:50.06 | 83888 | 101143
6 | 22:28.44 | 4:07.31 | 101144 | 119699
7 | 26:36.00 | 4:17.71 | 119700 | 139045
8 | 30:53.71 | 4:57.20 | 139046 | 161340
9 | 35:51.16 | 4:38.30 | 161341 | 182220
10 | 40:29.46 | 3:16.64 | 182221 | 196984
11 | 43:46.35 | 4:21.04 | 196985 | 216563
12 | 48:07.39 | 4:39.48 | 216564 | 237536
Track 1
Filename E:RIPSBon Jovi - The Circle (2009) [FLAC]�1 - We Weren't Born To Follow.wav
Pre-gap length 0:00:02.00
Peak level 99.9 %
Track quality 100.0 %
Test CRC 3D797A6C
Copy CRC 3D797A6C
Track not present in AccurateRip database
Copy OK
Track 2
Filename E:RIPSBon Jovi - The Circle (2009) [FLAC]�2 - When We Were Beautiful.wav
Peak level 99.9 %
Track quality 99.9 %
Test CRC 077035A8
Copy CRC 077035A8
Track not present in AccurateRip database
Copy OK
Track 3
Filename E:RIPSBon Jovi - The Circle (2009) [FLAC]�3 - Work For The Working Man.wav
Peak level 99.9 %
Track quality 99.9 %
Test CRC A6A88772
Copy CRC A6A88772
Track not present in AccurateRip database
Copy OK
Track 4
Filename E:RIPSBon Jovi - The Circle (2009) [FLAC]�4 - Superman Tonight.wav
Peak level 99.9 %
Track quality 100.0 %
Test CRC E745AF67
Copy CRC E745AF67
Track not present in AccurateRip database
Copy OK
Track 5
Filename E:RIPSBon Jovi - The Circle (2009) [FLAC]�5 - Bullet.wav
Peak level 99.9 %
Track quality 100.0 %
Test CRC 5FB2D2F5
Copy CRC 5FB2D2F5
Track not present in AccurateRip database
Copy OK
Track 6
Filename E:RIPSBon Jovi - The Circle (2009) [FLAC]�6 - Thorn In My Side.wav
Peak level 99.9 %
Track quality 100.0 %
Test CRC 6007542F
Copy CRC 6007542F
Track not present in AccurateRip database
Copy OK
Track 7
Filename E:RIPSBon Jovi - The Circle (2009) [FLAC]�7 - Live Before You Die.wav
Pre-gap length 0:00:02.26
Peak level 99.9 %
Track quality 100.0 %
Test CRC 00AB7BFF
Copy CRC 00AB7BFF
Track not present in AccurateRip database
Copy OK
Track 8
Filename E:RIPSBon Jovi - The Circle (2009) [FLAC]�8 - Brokenpromiseland.wav
Peak level 99.9 %
Track quality 100.0 %
Test CRC CF98DBB2
Copy CRC CF98DBB2
Track not present in AccurateRip database
Copy OK
Track 9
Filename E:RIPSBon Jovi - The Circle (2009) [FLAC]�9 - Love's The Only Rule.wav
Peak level 99.9 %
Track quality 100.0 %
Test CRC A8F312CA
Copy CRC A8F312CA
Track not present in AccurateRip database
Copy OK
Track 10
Filename E:RIPSBon Jovi - The Circle (2009) [FLAC]10 - Fast Cars.wav
Peak level 99.9 %
Track quality 100.0 %
Test CRC 3518E551
Copy CRC 3518E551
Track not present in AccurateRip database
Copy OK
Track 11
Filename E:RIPSBon Jovi - The Circle (2009) [FLAC]11 - Happy Now.wav
Peak level 99.9 %
Track quality 100.0 %
Test CRC 9ED7632D
Copy CRC 9ED7632D
Track not present in AccurateRip database
Copy OK
Track 12
Filename E:RIPSBon Jovi - The Circle (2009) [FLAC]12 - Learn To Love.wav
Peak level 99.9 %
Track quality 100.0 %
Test CRC 2E37A42C
Copy CRC 2E37A42C
Track not present in AccurateRip database
Copy OK
None of the tracks are present in the AccurateRip database
No errors occurred
End of status report



   Похожие торренты   Размер 
В этой теме нет новых непрочитанных сообщений. Bon Jovi - The Circle (2009) МР3

110.61 МБ

В этой теме нет новых непрочитанных сообщений. VA - The Many Faces Of Bon Jovi - A Journey Through The Inner World Of Bon Jovi (3CD) [2018, Rock, Glam Rock, Hard Rock, FLAC]

1.28 ГБ

В этой теме нет новых непрочитанных сообщений. Bon Jovi: Live at Madison Square Garden (2009) BDRip 1080p

14.75 ГБ

В этой теме нет новых непрочитанных сообщений. Circle II Circle - Reign Of Darkness (2015) MP3

107.3 МБ

В этой теме нет новых непрочитанных сообщений. Bon Jovi - Slippery When Wet (1986) FLAC

296.63 МБ

В этой теме нет новых непрочитанных сообщений. Bon Jovi - Burning Bridges (2015) FLAC | 24-bit

513.61 МБ

В этой теме нет новых непрочитанных сообщений. Bon Jovi - Burning Bridges (2015) FLAC

283.71 МБ




Вы не можете начинать темы
Вы не можете отвечать на сообщения
Вы не можете редактировать свои сообщения
Вы не можете удалять свои сообщения
Вы не можете добавлять вложения

Перейти:  
 Вход
ppkBB3cker v.2 © 2008-2014 @ PPK
[ Time : 0.028s | 16 Queries | GZIP : Off ]

Для правообладателей, рекламодателей и роскомнадзора: rstracker[собачка]yandex.ru
cron