img
Planets Sun Sun Sun
Статистика раздачи
Автор: mari | Размер: 501.76 МБ | Добавлен: 28 июл 2013
Скачать торрент
Скачать торрент

СообщениеДобавлено: 28 июл 2013 

#77

Lita Ford-Wicked Wonderland
Год выпуска диска: 2009
Стиль: Hard'n'Heavy
Формат/Кодек: FLAC(tracks+.cue)
Битрейт аудио: lossless
Продолжительность: 01:05:33

Трек-лист:
1. Crave (03:46)
2. Piece (Hell Yeah) (03:42)
3. Patriotic SOB (04:33)
4. Scream 4 Me (03:58)
5. Inside (04:13)
6. Wicked Wonderland (03:50)
7. Indulge (04:43)
8. Love (05:32)
9. Betrayal (03:58)
10. Sacred (04:35)
11. Truth (03:56)
12. Everything (03:36)
13. Bed (06:51)
14. Garden (04:07)
15. Push (04:17)

X Lossless Decoder version 20090930 (110.0)
XLD extraction logfile from 2009-10-14 17:54:55 +0200
Lita Ford / Wicked Wonderland
Used drive : YAMAHA CRW-F1E (revision 1.0g)
Use cdparanoia mode : YES (CDParanoia III 10.2 engine)
Disable audio cache : OK for the drive with cache less than 2750KB
Make use of C2 pointers : NO
Read offset correction : 733
Max retry count : 100
TOC of the extracted CD
Track | Start | Length | Start sector | End sector
---------------------------------------------------------
1 | 00:00:00 | 03:46:00 | 0 | 16949
2 | 03:46:00 | 03:41:45 | 16950 | 33569
3 | 07:27:45 | 04:32:45 | 33570 | 54014
4 | 12:00:15 | 03:57:61 | 54015 | 71850
5 | 15:58:01 | 04:12:47 | 71851 | 90797
6 | 20:10:48 | 03:49:72 | 90798 | 108044
7 | 24:00:45 | 04:42:64 | 108045 | 129258
8 | 28:43:34 | 05:31:26 | 129259 | 154109
9 | 34:14:60 | 03:58:15 | 154110 | 171974
10 | 38:13:00 | 04:34:31 | 171975 | 192555
11 | 42:47:31 | 03:55:53 | 192556 | 210233
12 | 46:43:09 | 03:35:61 | 210234 | 226419
13 | 50:18:70 | 06:51:05 | 226420 | 257249
14 | 57:10:00 | 04:06:24 | 257250 | 275723
15 | 61:16:24 | 04:16:51 | 275724 | 294974
Track 01
Filename : /Volumes/HD 2/Lita Ford - 2009 - Wicked Wonderland/01 - Lita Ford -Crave.flac
CRC32 hash (test run) : 5CA89A53
CRC32 hash : 5CA89A53
CRC32 hash (skip zero) : F9848E44
Statistics
Read error : 0
Skipped (treated as error) : 0
Edge jitter error (maybe fixed) : 0
Atom jitter error (maybe fixed) : 0
Drift error (maybe fixed) : 0
Dropped bytes error (maybe fixed) : 0
Duplicated bytes error (maybe fixed) : 0
Inconsistency in error sectors : 0
Track 02
Filename : /Volumes/HD 2/Lita Ford - 2009 - Wicked Wonderland/02 - Lita Ford -Piece (Hell Yeah).flac
CRC32 hash (test run) : 2F2A60FB
CRC32 hash : 2F2A60FB
CRC32 hash (skip zero) : 93A8D067
Statistics
Read error : 0
Skipped (treated as error) : 0
Edge jitter error (maybe fixed) : 0
Atom jitter error (maybe fixed) : 0
Drift error (maybe fixed) : 0
Dropped bytes error (maybe fixed) : 0
Duplicated bytes error (maybe fixed) : 0
Inconsistency in error sectors : 0
Track 03
Filename : /Volumes/HD 2/Lita Ford - 2009 - Wicked Wonderland/03 - Lita Ford -Patriotic SOB.flac
CRC32 hash (test run) : 90518F3E
CRC32 hash : 90518F3E
CRC32 hash (skip zero) : 3919E60E
Statistics
Read error : 0
Skipped (treated as error) : 0
Edge jitter error (maybe fixed) : 0
Atom jitter error (maybe fixed) : 0
Drift error (maybe fixed) : 0
Dropped bytes error (maybe fixed) : 0
Duplicated bytes error (maybe fixed) : 0
Inconsistency in error sectors : 0
Track 04
Filename : /Volumes/HD 2/Lita Ford - 2009 - Wicked Wonderland/04 - Lita Ford -Scream 4 Me.flac
CRC32 hash (test run) : 7BFB1C15
CRC32 hash : 7BFB1C15
CRC32 hash (skip zero) : BE33E4AE
Statistics
Read error : 0
Skipped (treated as error) : 0
Edge jitter error (maybe fixed) : 0
Atom jitter error (maybe fixed) : 0
Drift error (maybe fixed) : 0
Dropped bytes error (maybe fixed) : 0
Duplicated bytes error (maybe fixed) : 0
Inconsistency in error sectors : 0
Track 05
Filename : /Volumes/HD 2/Lita Ford - 2009 - Wicked Wonderland/05 - Lita Ford -Inside.flac
CRC32 hash (test run) : 0A4195DD
CRC32 hash : 0A4195DD
CRC32 hash (skip zero) : 454B3755
Statistics
Read error : 0
Skipped (treated as error) : 0
Edge jitter error (maybe fixed) : 0
Atom jitter error (maybe fixed) : 0
Drift error (maybe fixed) : 0
Dropped bytes error (maybe fixed) : 0
Duplicated bytes error (maybe fixed) : 0
Inconsistency in error sectors : 0
Track 06
Filename : /Volumes/HD 2/Lita Ford - 2009 - Wicked Wonderland/06 - Lita Ford -Wicked Wonderland.flac
CRC32 hash (test run) : 0799BE14
CRC32 hash : 0799BE14
CRC32 hash (skip zero) : 3CB1E399
Statistics
Read error : 0
Skipped (treated as error) : 0
Edge jitter error (maybe fixed) : 0
Atom jitter error (maybe fixed) : 0
Drift error (maybe fixed) : 0
Dropped bytes error (maybe fixed) : 0
Duplicated bytes error (maybe fixed) : 0
Inconsistency in error sectors : 0
Track 07
Filename : /Volumes/HD 2/Lita Ford - 2009 - Wicked Wonderland/07 - Lita Ford -Indulge.flac
CRC32 hash (test run) : B77A648B
CRC32 hash : B77A648B
CRC32 hash (skip zero) : 4A29E910
Statistics
Read error : 0
Skipped (treated as error) : 0
Edge jitter error (maybe fixed) : 0
Atom jitter error (maybe fixed) : 0
Drift error (maybe fixed) : 0
Dropped bytes error (maybe fixed) : 0
Duplicated bytes error (maybe fixed) : 0
Inconsistency in error sectors : 0
Track 08
Filename : /Volumes/HD 2/Lita Ford - 2009 - Wicked Wonderland/08 - Lita Ford -Love.flac
CRC32 hash (test run) : 3F75B44E
CRC32 hash : 3F75B44E
CRC32 hash (skip zero) : B236C420
Statistics
Read error : 0
Skipped (treated as error) : 0
Edge jitter error (maybe fixed) : 0
Atom jitter error (maybe fixed) : 0
Drift error (maybe fixed) : 0
Dropped bytes error (maybe fixed) : 0
Duplicated bytes error (maybe fixed) : 0
Inconsistency in error sectors : 0
Track 09
Filename : /Volumes/HD 2/Lita Ford - 2009 - Wicked Wonderland/09 - Lita Ford -Betrayal.flac
CRC32 hash (test run) : 61FE3D8A
CRC32 hash : 61FE3D8A
CRC32 hash (skip zero) : 9CE12F71
Statistics
Read error : 0
Skipped (treated as error) : 0
Edge jitter error (maybe fixed) : 0
Atom jitter error (maybe fixed) : 0
Drift error (maybe fixed) : 0
Dropped bytes error (maybe fixed) : 0
Duplicated bytes error (maybe fixed) : 0
Inconsistency in error sectors : 0
Track 10
Filename : /Volumes/HD 2/Lita Ford - 2009 - Wicked Wonderland/10 - Lita Ford -Sacred.flac
CRC32 hash (test run) : A0BA8D40
CRC32 hash : A0BA8D40
CRC32 hash (skip zero) : 57B92865
Statistics
Read error : 0
Skipped (treated as error) : 0
Edge jitter error (maybe fixed) : 0
Atom jitter error (maybe fixed) : 0
Drift error (maybe fixed) : 0
Dropped bytes error (maybe fixed) : 0
Duplicated bytes error (maybe fixed) : 0
Inconsistency in error sectors : 0
Track 11
Filename : /Volumes/HD 2/Lita Ford - 2009 - Wicked Wonderland/11 - Lita Ford -Truth.flac
CRC32 hash (test run) : 165EA476
CRC32 hash : 165EA476
CRC32 hash (skip zero) : F90627D5
Statistics
Read error : 0
Skipped (treated as error) : 0
Edge jitter error (maybe fixed) : 0
Atom jitter error (maybe fixed) : 0
Drift error (maybe fixed) : 0
Dropped bytes error (maybe fixed) : 0
Duplicated bytes error (maybe fixed) : 0
Inconsistency in error sectors : 0
Track 12
Filename : /Volumes/HD 2/Lita Ford - 2009 - Wicked Wonderland/12 - Lita Ford -Everything.flac
CRC32 hash (test run) : 894C886C
CRC32 hash : 894C886C
CRC32 hash (skip zero) : B1CE7A12
Statistics
Read error : 0
Skipped (treated as error) : 0
Edge jitter error (maybe fixed) : 0
Atom jitter error (maybe fixed) : 0
Drift error (maybe fixed) : 0
Dropped bytes error (maybe fixed) : 0
Duplicated bytes error (maybe fixed) : 0
Inconsistency in error sectors : 0
Track 13
Filename : /Volumes/HD 2/Lita Ford - 2009 - Wicked Wonderland/13 - Lita Ford -Bed.flac
CRC32 hash (test run) : 5F849C1D
CRC32 hash : 5F849C1D
CRC32 hash (skip zero) : 8326D664
Statistics
Read error : 0
Skipped (treated as error) : 0
Edge jitter error (maybe fixed) : 0
Atom jitter error (maybe fixed) : 0
Drift error (maybe fixed) : 0
Dropped bytes error (maybe fixed) : 0
Duplicated bytes error (maybe fixed) : 0
Inconsistency in error sectors : 0
Track 14
Filename : /Volumes/HD 2/Lita Ford - 2009 - Wicked Wonderland/14 - Lita Ford -Garden.flac
CRC32 hash (test run) : A3A6B928
CRC32 hash : A3A6B928
CRC32 hash (skip zero) : 59FA2C1B
Statistics
Read error : 0
Skipped (treated as error) : 0
Edge jitter error (maybe fixed) : 0
Atom jitter error (maybe fixed) : 0
Drift error (maybe fixed) : 0
Dropped bytes error (maybe fixed) : 0
Duplicated bytes error (maybe fixed) : 0
Inconsistency in error sectors : 0
Track 15
Filename : /Volumes/HD 2/Lita Ford - 2009 - Wicked Wonderland/15 - Lita Ford -Push.flac
CRC32 hash (test run) : 7E0CBE5E
CRC32 hash : 7E0CBE5E
CRC32 hash (skip zero) : 5DF1BD12
Statistics
Read error : 0
Skipped (treated as error) : 0
Edge jitter error (maybe fixed) : 0
Atom jitter error (maybe fixed) : 0
Drift error (maybe fixed) : 0
Dropped bytes error (maybe fixed) : 0
Duplicated bytes error (maybe fixed) : 0
Inconsistency in error sectors : 0
No errors occurred
End of status report



   Похожие торренты   Размер 
В этой теме нет новых непрочитанных сообщений. Lita Ford - Time Capsule (2016) MP3

103.48 МБ

В этой теме нет новых непрочитанных сообщений. Lita Ford - Greatest Hits [Bootleg] (2000) MP3

166.48 МБ

В этой теме нет новых непрочитанных сообщений. Lita Ford - Time Capsule (2016) AAC | iTunes

93.13 МБ

В этой теме нет новых непрочитанных сообщений. Lita Ford - Live And Deadly [2014, Rock, Hard Rock, Heavy Metal, FLAC]

453.77 МБ

В этой теме нет новых непрочитанных сообщений. Chuckie, Fedde Le Grand, DJ Feel, Mark Knight, Mr. White, Borgeous - Sensation Wicked Wonderland Moscow [12.06] (2015) MP3

887.63 МБ

В этой теме нет новых непрочитанных сообщений. My Wicked Twin - Дискография [2009 - 2019, Hard Rock, MP3]

169.81 МБ

В этой теме нет новых непрочитанных сообщений. Dwayne Ford - Needless Freaking (1981) FLAC

213.12 МБ




Вы не можете начинать темы
Вы не можете отвечать на сообщения
Вы не можете редактировать свои сообщения
Вы не можете удалять свои сообщения
Вы не можете добавлять вложения

Перейти:  
 Вход
ppkBB3cker v.2 © 2008-2014 @ PPK
[ Time : 0.016s | 18 Queries | GZIP : Off ]

Для правообладателей, рекламодателей и роскомнадзора: rstracker[собачка]yandex.ru
cron