img
Planets Sun Sun Sun
Статистика раздачи
Автор: mari | Размер: 270.02 МБ | Добавлен: 28 июл 2013
Скачать торрент
Скачать торрент

СообщениеДобавлено: 28 июл 2013 

#77

David Garrett - David Garrett
Год выпуска диска: 2009
Стиль: Classical Crossover
Формат/Кодек: FLAC(tracks+.cue)
Битрейт аудио: lossless
Продолжительность: 44:29

Трек-лист:

1. "Summer" (Antonio Vivaldi) (2:39)
2. "Nothing Else Matters" (Metallica) (3:32)
3. "He's a Pirate" (Pirates of the Caribbean theme)(3:03)
4. "Smooth Criminal" (Michael Jackson)(3:08)
5. "Csardas Gypsy Dance" (Vittorio Monti)(3:25)
6. "Who Wants to Live Forever?" (Queen)(4:09)
7. "Thunderstruck" (AC/DC)(3:08)
8. "Ain't No Sunshine" (Bill Withers) (2:41)
9. "Carmen Fantaisie" (Georges Bizet) featuring Paco Peña, guitar (4:15)
10. "Air" (J.S. Bach) (3:38)
11. "Zorba's Dance" (from the film Zorba the Greek) (2:35)
12. "Chelsea Girl" (2:45)
13. "Rock Prelude" (3:22)
14. "Dueling Banjos" (from the film Deliverance)(2:10)

Exact Audio Copy V0.99 prebeta 3 from 28. July 2007
EAC extraction logfile from 1. July 2009, 15:21
David Garrett / David Garrett
Used drive : TSSTcorpCDRWDVD TS-H492C Adapter: 2 ID: 0
Read mode : Secure
Utilize accurate stream : Yes
Defeat audio cache : Yes
Make use of C2 pointers : No
Read offset correction : 6
Overread into Lead-In and Lead-Out : No
Fill up missing offset samples with silence : Yes
Delete leading and trailing silent blocks : No
Null samples used in CRC calculations : Yes
Used interface : Native Win32 interface for Win NT & 2000
Gap handling : Appended to previous track
Used output format : User Defined Encoder
Selected bitrate : 320 kBit/s
Quality : High
Add ID3 tag : No
Command line compressor : D:Program FilesFLACflac.exe
Additional command line options : -V -8 -T "artist=%a" -T "title=%t" -T "album=%g" -T "date=%y" -T "tracknumber=%n" -T "genre=%m" %s
TOC of the extracted CD
Track | Start | Length | Start sector | End sector
---------------------------------------------------------
1 | 0:00.00 | 2:38.65 | 0 | 11914
2 | 2:38.65 | 3:31.52 | 11915 | 27791
3 | 6:10.42 | 3:02.58 | 27792 | 41499
4 | 9:13.25 | 3:07.65 | 41500 | 55589
5 | 12:21.15 | 3:24.47 | 55590 | 70936
6 | 15:45.62 | 4:08.50 | 70937 | 89586
7 | 19:54.37 | 3:07.41 | 89587 | 103652
8 | 23:02.03 | 2:41.16 | 103653 | 115743
9 | 25:43.19 | 4:15.29 | 115744 | 134897
10 | 29:58.48 | 3:38.33 | 134898 | 151280
11 | 33:37.06 | 2:34.54 | 151281 | 162884
12 | 36:11.60 | 2:45.18 | 162885 | 175277
13 | 38:57.03 | 3:22.34 | 175278 | 190461
14 | 42:19.37 | 2:09.58 | 190462 | 200194
Track 1
Filename C:MusicTorrents 2David Garrett - David Garrett\01 David Garrett - Summer (David Garrett).wav
Pre-gap length 0:00:02.00
Peak level 99.8 %
Track quality 100.0 %
Test CRC 248848AC
Copy CRC 248848AC
Track not present in AccurateRip database
Copy OK
Track 2
Filename C:MusicTorrents 2David Garrett - David Garrett\02 David Garrett - Nothing Else Matters (David Garrett).wav
Peak level 99.8 %
Track quality 100.0 %
Test CRC AAF36811
Copy CRC AAF36811
Track not present in AccurateRip database
Copy OK
Track 3
Filename C:MusicTorrents 2David Garrett - David Garrett\03 David Garrett - He's a Pirate (Pirates of the Caribbean Theme) (David Garrett).wav
Pre-gap length 0:00:01.29
Peak level 99.8 %
Track quality 100.0 %
Test CRC F82C0CC6
Copy CRC F82C0CC6
Track not present in AccurateRip database
Copy OK
Track 4
Filename C:MusicTorrents 2David Garrett - David Garrett\04 David Garrett - Smooth Criminal (David Garrett).wav
Pre-gap length 0:00:01.28
Peak level 99.0 %
Track quality 100.0 %
Test CRC 1D4B1B08
Copy CRC 1D4B1B08
Track not present in AccurateRip database
Copy OK
Track 5
Filename C:MusicTorrents 2David Garrett - David Garrett\05 David Garrett - Csбrdбs __ Gypsy Dance (David Garrett).wav
Peak level 99.8 %
Track quality 100.0 %
Test CRC B9837CED
Copy CRC B9837CED
Track not present in AccurateRip database
Copy OK
Track 6
Filename C:MusicTorrents 2David Garrett - David Garrett\06 David Garrett - Who Wants to Live Forever (David Garrett).wav
Pre-gap length 0:00:00.77
Peak level 98.9 %
Track quality 100.0 %
Test CRC 77F9138D
Copy CRC 77F9138D
Track not present in AccurateRip database
Copy OK
Track 7
Filename C:MusicTorrents 2David Garrett - David Garrett\07 David Garrett - Thunderstruck (David Garrett).wav
Pre-gap length 0:00:01.26
Peak level 99.8 %
Track quality 100.0 %
Test CRC 7BF45152
Copy CRC 7BF45152
Track not present in AccurateRip database
Copy OK
Track 8
Filename C:MusicTorrents 2David Garrett - David Garrett\08 David Garrett - Ain't No Sunshine (David Garrett).wav
Pre-gap length 0:00:01.28
Peak level 99.8 %
Track quality 100.0 %
Test CRC 5C364C5D
Copy CRC 5C364C5D
Track not present in AccurateRip database
Copy OK
Track 9
Filename C:MusicTorrents 2David Garrett - David Garrett\09 David Garrett - Carmen Fantaisie (David Garrett).wav
Pre-gap length 0:00:01.76
Peak level 99.8 %
Track quality 100.0 %
Test CRC 9B18FF83
Copy CRC 9B18FF83
Track not present in AccurateRip database
Copy OK
Track 10
Filename C:MusicTorrents 2David Garrett - David Garrett10 David Garrett - Air (David Garrett).wav
Pre-gap length 0:00:01.26
Peak level 98.1 %
Track quality 100.0 %
Test CRC ABF58286
Copy CRC ABF58286
Track not present in AccurateRip database
Copy OK
Track 11
Filename C:MusicTorrents 2David Garrett - David Garrett11 David Garrett - Zorba's Dance (From Zorba the Greek) (David Garrett).wav
Pre-gap length 0:00:01.45
Peak level 99.8 %
Track quality 99.9 %
Test CRC 9073F968
Copy CRC 9073F968
Track not present in AccurateRip database
Copy OK
Track 12
Filename C:MusicTorrents 2David Garrett - David Garrett12 David Garrett - Chelsea Girl (David Garrett).wav
Pre-gap length 0:00:01.28
Peak level 99.8 %
Track quality 100.0 %
Test CRC 7696A7BB
Copy CRC 7696A7BB
Track not present in AccurateRip database
Copy OK
Track 13
Filename C:MusicTorrents 2David Garrett - David Garrett13 David Garrett - Rock Prelude (David Garrett).wav
Pre-gap length 0:00:01.80
Peak level 99.3 %
Track quality 100.0 %
Test CRC FAF1A78F
Copy CRC FAF1A78F
Track not present in AccurateRip database
Copy OK
Track 14
Filename C:MusicTorrents 2David Garrett - David Garrett14 David Garrett - Dueling Banjos (Dueling Strings) (David Garrett).wav
Pre-gap length 0:00:01.78
Peak level 99.8 %
Track quality 100.0 %
Test CRC 53E0FA9F
Copy CRC 53E0FA9F
Track not present in AccurateRip database
Copy OK
None of the tracks are present in the AccurateRip database
No errors occurred
End of status report


Дополнительная информация:

Ему всё равно стоять ли на улице в драных джинсах и простой футболке и наслaждать слух мимо проходящих людей звуками своего Cтрадивариуса (стоимость которого миллион евро), или на сцене лондонского Роял Альберт Холл - он музыкант без «позы» и чувствует себя комфортно везде. Играет классику и рок. Всемирно известный, талантливый, молодой скрипач-виртуоз - Дэвид Гарретт (David Garrett ) уже ребёнком стал знаменитым. В десятилетнем возрасте он дал свой первый концерт на сцене Гамбургской филармонии, а через два года выступал вместе с И. Менухин. В 17 лет Дэвид поступил в знаменитую Джульярдскую школу (Juilliard School of Music) - одно из крупнейших американских высших учебных заведений в области искусства.
David Garrett, занесенный в книгу рекордов Гиннесса, как «самый быстрый скрипач-виртуоз»(«Полет шмеля» Н.И.Римского-Корсакова исполняет на скрипке Страдивари за одну минуту) , взял в руки любимый инструмент в 4 года.
Музыке он учился у известных педагогов- Исака Штерна, Захара Брона, Итцака Перлмана и Дороти Делай.
В 2007 году молодой музыкант (ему всего 28 лет) выпустил альбом «Виртуозо», где записаны его интерпритации классических произведений , лирических мелодий из кинофильмов, и музыки любимой рок-группы Metallica. Проект рискованный, но успешный!



   Похожие торренты   Размер 
В этой теме нет новых непрочитанных сообщений. David Garrett - Explosive [Deluxe, 2CD] (2015) FLAC

463.99 МБ

В этой теме нет новых непрочитанных сообщений. David Garrett - Rock Revolution (2017) FLAC

419.34 МБ

В этой теме нет новых непрочитанных сообщений. David Garrett - Rock Revolution (2017) MP3

149.3 МБ

В этой теме нет новых непрочитанных сообщений. David Garrett - Rock Symphonies (2010) Blu-ray от Brazzass

30.43 ГБ

В этой теме нет новых непрочитанных сообщений. David Garrett - Explosive [Deluxe Edition] (2015) MP3

167.01 МБ

В этой теме нет новых непрочитанных сообщений. David Garrett - Rock Symphonies (2010) BDRip 1080p от Brazzass

12.45 ГБ

В этой теме нет новых непрочитанных сообщений. David Garrett - Rock Symphonies (2010) BDRip 720p от Brazzass

6.96 ГБ




Вы не можете начинать темы
Вы не можете отвечать на сообщения
Вы не можете редактировать свои сообщения
Вы не можете удалять свои сообщения
Вы не можете добавлять вложения

Перейти:  
 Вход
ppkBB3cker v.2 © 2008-2014 @ PPK
[ Time : 0.015s | 18 Queries | GZIP : Off ]

Для правообладателей, рекламодателей и роскомнадзора: rstracker[собачка]yandex.ru
cron