Planets Sun Sun Sun

COVID-19 - Последняя информация о коронавирусе на сайте Минздрава


Статистика раздачи
Автор: mari | Размер: 320.59 МБ | Добавлен: 28 июл 2013


Скачать торрент
Скачать торрент

СообщениеДобавлено: 28 июл 2013 

#77
Жанр: Pop
Год выпуска диска: 2009
Производитель диска: Россия
Аудио кодек: APE
Тип рипа: image+.cue
Битрейт аудио: lossless
Продолжительность: 46:52
Трэклист:
1. Ты идешь по дороге
2. Что б ты делала, родная, если б не было меня (Part 1)
3. Ты изменила… жизнь мою
4. Куст сирени
5. А теперь немного тише (Ничего не говори)
6. Скажи зачем
7. То, что ты хотела
8. Одинокая звезда
9. Что б ты делала, родная, если б не было меня (Part 2)
10. Потанцуй со мной
11. Песня о рояле (Бывают в жизни огорчения)
Доп. информация: Новый и реально отличный альбом Каюшки. Жаль, что мало людей купят диск. Так что скачайте, послушайте и в магазин!

Exact Audio Copy V0.99 prebeta 5 from 4. May 2009
Отчёт EAC об извлечении, выполненном 3. ноября 2009, 11:05
Кай Метов / Что б ты делала, родная, если б не было меня...
Дисковод: TSSTcorpCDDVDW TS-L632N Adapter: 0 ID: 0
Режим чтения : Достоверность
Использование точного потока : Да
Отключение кэша аудио : Да
Использование указателей C2 : Нет
Коррекция смещения при чтении : 6
Способность читать области Lead-in и Lead-out : Нет
Заполнение пропущенных сэмплов тишиной : Да
Удаление блоков с тишиной в начале и конце : Нет
При вычислениях CRC использовались нулевые сэмплы : Да
Интерфейс : Установленный внешний ASPI-интерфейс
Выходной формат : Внутренние WAV-операции
Формат сэмплов : 44.100 Гц; 16 бит; стерео
TOC извлечённого CD
Трек | Старт | Длительность | Начальный сектор | Конечный сектор
---------------------------------------------------------------------
1 | 0:00.00 | 4:05.74 | 0 | 18448
2 | 4:05.74 | 3:34.74 | 18449 | 34572
3 | 7:40.73 | 4:39.74 | 34573 | 55571
4 | 12:20.72 | 4:16.37 | 55572 | 74808
5 | 16:37.34 | 4:29.37 | 74809 | 95020
6 | 21:06.71 | 4:40.70 | 95021 | 116090
7 | 25:47.66 | 4:13.10 | 116091 | 135075
8 | 30:01.01 | 4:37.70 | 135076 | 155920
9 | 34:38.71 | 3:20.22 | 155921 | 170942
10 | 37:59.18 | 5:06.34 | 170943 | 193926
11 | 43:05.52 | 3:46.48 | 193927 | 210924
Характеристики диапазона извлечения и сообщения об ошибках
Выбранный диапазон
Имя файла C:UsersusergrushКай Метов - Что б ты делала, родная, если б не было меняКай Метов - Что б ты делала, родная, если б не было меня....wav
Пиковый уровень 100.0 %
Качество диапазона 100.0 %
CRC копии 504DD732
Копирование... OK
Ошибок не произошло
Конец отчёта



   Похожие торренты   Размер 
В этой теме нет новых непрочитанных сообщений. VA - Родная песенка (1986) MP3

67.23 МБ

В этой теме нет новых непрочитанных сообщений. VA - Милая Моя Родная. Музыка Для Души (2016) MP3

915.68 МБ

В этой теме нет новых непрочитанных сообщений. Vinnie Moore - To The Core (2009) APE

439.35 МБ

В этой теме нет новых непрочитанных сообщений. Cinema Bizarre - ToyZ (2009) APE

426.52 МБ

В этой теме нет новых непрочитанных сообщений. Стас Притчин - Лебёдушка [2009, Шансон, APE]

276.05 МБ

В этой теме нет новых непрочитанных сообщений. Europe - Discography (1983-2009) FLAC, APE

8.78 ГБ

В этой теме нет новых непрочитанных сообщений. Elvis Presley - I Believe: The Gospel Masters (2009) APE

1.12 ГБ




Вы не можете начинать темы
Вы не можете отвечать на сообщения
Вы не можете редактировать свои сообщения
Вы не можете удалять свои сообщения
Вы не можете добавлять вложения

Перейти:  
 Вход
ppkBB3cker v.2 © 2008-2014 @ PPK
[ Time : 0.022s | 18 Queries | GZIP : Off ]

Для правообладателей, рекламодателей и роскомнадзора: rstracker[собачка]yandex.ru
cron