img
Planets Sun Sun Sun
Статистика раздачи
Автор: mari | Размер: 479.9 МБ | Добавлен: 28 июл 2013
Скачать торрент
Скачать торрент

СообщениеДобавлено: 28 июл 2013 

#77
Название: Sting - Fields Of Gold
Формат:APE (image+.cue)
Битрейт: Lossless
Год выпуска: 1994
Продолжительность:73 мин. 03 сек.

Треклист:
01. Sting - When We Dance (05:58)
02. Sting - If You Love Somebody Set Them Free (04:15)
03. Sting - Fields Of Gold (03:39)
04. Sting - All This Time (04:55)
05. Sting - Englishman In New York (04:27)
06. Sting - Mad About You (03:53)
07. Sting - It's Probably Me (05:01)
08. Sting - They Dance Alone (Cueca Solo) (07:14)
09. Sting - If I Ever Lose My Faith In You (04:31)
10. Sting - Fragile (03:53)
11. Sting - We'll Be Together (03:51)
12. Sting - Moon Over Bourbon Street (04:00)
13. Sting - Love Is The Seventh Wave (03:31)
14. Sting - Russians (03:57)
15. Sting - Why Should I Cry For You? (04:51)
16. Sting - This Cowboy Song (05:00)
17. Sting - Fragilidad (03:51)
Код:
Exact Audio Copy V0.99 prebeta 5 from 4. May 2009

Отчёт EAC об извлечении, выполненном 10. ноября 2009, 18:51

Sting / Fields Of Gold

Дисковод: ASUS    DRW-1814BLT   Adapter: 2  ID: 0

Режим чтения                 : Достоверность
Использование точного потока : Да
Отключение кэша аудио        : Да
Использование указателей C2  : Нет

Коррекция смещения при чтении                     : 6
Способность читать области Lead-in и Lead-out     : Нет
Заполнение пропущенных сэмплов тишиной            : Да
Удаление блоков с тишиной в начале и конце        : Нет
При вычислениях CRC использовались нулевые сэмплы : Да
Интерфейс                                         : Установленный внешний ASPI-интерфейс

Выходной формат : Внутренние WAV-операции
Формат сэмплов  : 44.100 Гц; 16 бит; стерео
TOC извлечённого CD

     Трек |   Старт  | Длительность | Начальный сектор | Конечный сектор
    ---------------------------------------------------------------------
       1  |  0:00.32 |    5:58.63   |          32      |      26944     
       2  |  5:59.20 |    4:15.62   |       26945      |      46131     
       3  | 10:15.07 |    3:39.13   |       46132      |      62569     
       4  | 13:54.20 |    4:55.25   |       62570      |      84719     
       5  | 18:49.45 |    4:27.12   |       84720      |     104756     
       6  | 23:16.57 |    3:53.58   |      104757      |     122289     
       7  | 27:10.40 |    5:01.17   |      122290      |     144881     
       8  | 32:11.57 |    7:14.63   |      144882      |     177494     
       9  | 39:26.45 |    4:31.50   |      177495      |     197869     
      10  | 43:58.20 |    3:53.62   |      197870      |     215406     
      11  | 47:52.07 |    3:51.25   |      215407      |     232756     
      12  | 51:43.32 |    4:00.13   |      232757      |     250769     
      13  | 55:43.45 |    3:31.12   |      250770      |     266606     
      14  | 59:14.57 |    3:57.00   |      266607      |     284381     
      15  | 63:11.57 |    4:51.00   |      284382      |     306206     
      16  | 68:02.57 |    5:00.50   |      306207      |     328756     
      17  | 73:03.32 |    3:52.00   |      328757      |     346156     
Характеристики диапазона извлечения и сообщения об ошибках

Выбранный диапазон

     Имя файла E:LosslessSting - Fields Of Gold.wav

     Пиковый уровень 97.9 %
     Качество диапазона 99.9 %
     CRC копии 9075B126
     Копирование... OK

Ошибок не произошло
AccurateRip: сводка
Трек  1  точность не определена (достоверность 69)  [D9C200B6], AccurateRip вернул [284B51AD]
Трек  2  точность не определена (достоверность 68)  [B629D130], AccurateRip вернул [B912F666]
Трек  3  точность не определена (достоверность 69)  [90F8EBC3], AccurateRip вернул [1F65917D]
Трек  4  точность не определена (достоверность 67)  [A4DAF9F1], AccurateRip вернул [6ADDED52]
Трек  5  точность не определена (достоверность 69)  [FBB752C3], AccurateRip вернул [A016340D]
Трек  6  точность не определена (достоверность 68)  [D61B29D6], AccurateRip вернул [51157658]
Трек  7  точность не определена (достоверность 69)  [EC8B2BA3], AccurateRip вернул [B6EE55EA]
Трек  8  точность не определена (достоверность 68)  [F33A19D6], AccurateRip вернул [A7006C1B]
Трек  9  точность не определена (достоверность 69)  [4BF05373], AccurateRip вернул [BD244B49]
Трек 10  точность не определена (достоверность 69)  [A4406AAE], AccurateRip вернул [EFE1C46A]
Трек 11  точность не определена (достоверность 69)  [09885959], AccurateRip вернул [C31C8F97]
Трек 12  точность не определена (достоверность 68)  [2CC4D4F7], AccurateRip вернул [C6D87E88]
Трек 13  точность не определена (достоверность 66)  [EC78E5B3], AccurateRip вернул [68BCC7B2]
Трек 14  точность не определена (достоверность 65)  [1232B09F], AccurateRip вернул [0CDD03B1]
Трек 15  точность не определена (достоверность 63)  [79B102FE], AccurateRip вернул [CAE13676]
Трек 16  точность не определена (достоверность 63)  [FCD396C6], AccurateRip вернул [D9A37C95]
Трек 17  точность не определена (достоверность 56)  [6D45D057], AccurateRip вернул [179D41EE]
Ни один трек не прошёл проверки на точность
В вашей базе может быть иной вариант штамповки диска

Конец отчёта




   Похожие торренты   Размер 
В этой теме нет новых непрочитанных сообщений. Sting - Fields of Gold: The Best of Sting [1984–1994] (1994) MP3

153.6 МБ

В этой теме нет новых непрочитанных сообщений. VA - Fields Of Gold Music For Romance (2016) MP3

880.03 МБ

В этой теме нет новых непрочитанных сообщений. Savage - Gold (1994) MP3

161.7 МБ

В этой теме нет новых непрочитанных сообщений. London Pops Orchestra - Instrumental Gold: 14 Fantastic Hits Of The 50's [1994, Instrumental, Easy Listening, FLAC]

258.99 МБ

В этой теме нет новых непрочитанных сообщений. Angie Gold - A Lady Of Gold (1982) MP3

196.07 МБ

В этой теме нет новых непрочитанных сообщений. Angie Gold - Angie Gold (1988) FLAC

572.67 МБ

В этой теме нет новых непрочитанных сообщений. VA - Ambient Fields Soundscapes, Vol. 2 (2015) MP3

270.99 МБ




Вы не можете начинать темы
Вы не можете отвечать на сообщения
Вы не можете редактировать свои сообщения
Вы не можете удалять свои сообщения
Вы не можете добавлять вложения

Перейти:  
 Вход
ppkBB3cker v.2 © 2008-2014 @ PPK
[ Time : 0.013s | 18 Queries | GZIP : Off ]

Для правообладателей, рекламодателей и роскомнадзора: rstracker[собачка]yandex.ru
cron