img
Planets Sun Sun Sun
Статистика раздачи
Автор: mari | Размер: 232.09 МБ | Добавлен: 28 июл 2013
Скачать торрент
Скачать торрент

СообщениеДобавлено: 28 июл 2013 

#77

Era - Classics
Год выпуска диска: 2009
Стиль: Electronic,classical
Формат/Кодек: FLAC (tracks+.cue)
Битрейт аудио: lossless
Продолжительность: 40:22

Трек-лист:

1. Caccini Redemption + Ave Maria (4:54)
2. Vivaldi Sunset Drive + Spring (3:41)
3. Verdi Arising Force + Nabucco (3:45)
4. Verdi The Chosen Path + La Forza Del Destino (4:17)
5. Bach Ritus Pacis + Concerto No.3 (3:45)
6. Malher Adagietto + 5'th Symphony (5:23)
7. Haendel Dark Wonders + Sarabande + Ombra Mai Fu (3:54)
8. Vivaldi Winds Of Hope + Winter (4:05)
9. Levi Sombre Day (3:52)
10. Barber Adagio For Strings (2:48)

Exact Audio Copy V0.99 prebeta 5 from 4. May 2009

EAC extraction logfile from 6. November 2009, 17:25

ERA / Classics

Used drive : LITE-ON DVD SHD-16P1S Adapter: 0 ID: 0

Read mode : Secure
Utilize accurate stream : Yes
Defeat audio cache : Yes
Make use of C2 pointers : No

Read offset correction : 6
Overread into Lead-In and Lead-Out : No
Fill up missing offset samples with silence : Yes
Delete leading and trailing silent blocks : No
Null samples used in CRC calculations : Yes
Used interface : Native Win32 interface for Win NT & 2000
Gap handling : Appended to previous track

Used output format : User Defined Encoder
Selected bitrate : 128 kBit/s
Quality : High
Add ID3 tag : No
Command line compressor : C:Program FilesFLACflac.exe
Additional command line options : -V -8 -T "artist=%a" -T "title=%t" -T "album=%g" -T "date=%y" -T "tracknumber=%n" -T "genre=%m" %s
TOC of the extracted CD

Track | Start | Length | Start sector | End sector
---------------------------------------------------------
1 | 0:00.00 | 4:53.39 | 0 | 22013
2 | 4:53.39 | 3:40.72 | 22014 | 38585
3 | 8:34.36 | 3:44.50 | 38586 | 55435
4 | 12:19.11 | 4:16.49 | 55436 | 74684
5 | 16:35.60 | 3:45.22 | 74685 | 91581
6 | 20:21.07 | 5:23.02 | 91582 | 115808
7 | 25:44.09 | 3:53.58 | 115809 | 133341
8 | 29:37.67 | 4:04.46 | 133342 | 151687
9 | 33:42.38 | 3:51.68 | 151688 | 169080
10 | 37:34.31 | 2:48.23 | 169081 | 181703
11 | 42:54.54 | 6:38.59 | 193104 | 223012
Track 1

Filename D:MusiquesERAClassicsFLAC\01 Redemption.wav

Pre-gap length 0:00:02.00

Peak level 99.8 %
Track quality 99.9 %
Test CRC 59A2D991
Copy CRC 59A2D991
Track not present in AccurateRip database
Copy OK

Track 2

Filename D:MusiquesERAClassicsFLAC\02 Sunset Drive.wav

Peak level 99.8 %
Track quality 100.0 %
Test CRC EACEBE1F
Copy CRC EACEBE1F
Track not present in AccurateRip database
Copy OK

Track 3

Filename D:MusiquesERAClassicsFLAC\03 Arising Force.wav

Peak level 99.9 %
Track quality 100.0 %
Test CRC AFD1DDE9
Copy CRC AFD1DDE9
Track not present in AccurateRip database
Copy OK

Track 4

Filename D:MusiquesERAClassicsFLAC\04 The Chosen Path.wav

Peak level 99.9 %
Track quality 100.0 %
Test CRC 601F7AD5
Copy CRC 601F7AD5
Track not present in AccurateRip database
Copy OK

Track 5

Filename D:MusiquesERAClassicsFLAC\05 Ritus Pacis.wav

Peak level 99.9 %
Track quality 100.0 %
Test CRC 6E171340
Copy CRC 6E171340
Track not present in AccurateRip database
Copy OK

Track 6

Filename D:MusiquesERAClassicsFLAC\06 Adagietto.wav

Peak level 99.9 %
Track quality 100.0 %
Test CRC 0B04FE76
Copy CRC 0B04FE76
Track not present in AccurateRip database
Copy OK

Track 7

Filename D:MusiquesERAClassicsFLAC\07 Dark Wonders.wav

Peak level 98.9 %
Track quality 99.9 %
Test CRC 5FA017C9
Copy CRC 5FA017C9
Track not present in AccurateRip database
Copy OK

Track 8

Filename D:MusiquesERAClassicsFLAC\08 Winds Of Hope.wav

Peak level 99.9 %
Track quality 100.0 %
Test CRC DEA9244D
Copy CRC DEA9244D
Track not present in AccurateRip database
Copy OK

Track 9

Filename D:MusiquesERAClassicsFLAC\09 Sombre Day.wav

Peak level 99.9 %
Track quality 100.0 %
Test CRC ABCFB153
Copy CRC ABCFB153
Track not present in AccurateRip database
Copy OK

Track 10

Filename D:MusiquesERAClassicsFLAC10 Adagio For Strings (ERA Version).wav

Peak level 99.8 %
Track quality 100.0 %
Test CRC 6978CAF3
Copy CRC 6978CAF3
Track not present in AccurateRip database
Copy OK
None of the tracks are present in the AccurateRip database

No errors occurred

End of status report



   Похожие торренты   Размер 
В этой теме нет новых непрочитанных сообщений. Era - Classics (Full Version) (2009) MP3 от BestSound ExKinoRay

176.67 МБ

В этой теме нет новых непрочитанных сообщений. VA - Bar Classics 12 [2CD] (2016) FLAC

644.87 МБ

В этой теме нет новых непрочитанных сообщений. She & Him - Classics (2014) FLAC

223.34 МБ

В этой теме нет новых непрочитанных сообщений. VA - Rock Classics Top 100 (2007) FLAC

2.7 ГБ

В этой теме нет новых непрочитанных сообщений. VA - Dubstep Classics (2015) FLAC

1.15 ГБ

В этой теме нет новых непрочитанных сообщений. VA - Hi-NRG Dance Classics (2015) FLAC

1.03 ГБ

В этой теме нет новых непрочитанных сообщений. Pentatonix - PTX, Vol. IV: Classics (2017) FLAC

159.11 МБ




Вы не можете начинать темы
Вы не можете отвечать на сообщения
Вы не можете редактировать свои сообщения
Вы не можете удалять свои сообщения
Вы не можете добавлять вложения

Перейти:  
 Вход
ppkBB3cker v.2 © 2008-2014 @ PPK
[ Time : 0.017s | 16 Queries | GZIP : Off ]

Для правообладателей, рекламодателей и роскомнадзора: rstracker[собачка]yandex.ru
cron