img
Planets Sun Sun Sun
Статистика раздачи
Автор: mari | Размер: 216.68 МБ | Добавлен: 28 июл 2013
Скачать торрент
Скачать торрент

СообщениеДобавлено: 28 июл 2013 

#77

Erik Mongrain - Equilibrium
Год выпуска диска: 2008
Стиль: Acoustic Guitar
Формат/Кодек: FLAC (tracks.+cue)
Битрейт аудио: lossless
Продолжительность: 40:20

Трек-лист:

1. A Ripple Effect (2:22)
2. Alone In The Mist (5:25)
3. Equilibrium (5:06)
4. Muse (5:18)
5. The Silent Fool (4:21)
6. Pandora's Box (4:07)
7. Eon's Illusion (4:09)
8. Raindigger (4:04)
9. Maelstrom (5:32)

Exact Audio Copy V0.99 prebeta 4 from 23. January 2008

EAC extraction logfile from 17. February 2009, 19:56

Erik Mongrain / Equilibrium

Used drive : LITE-ON DVDRW SOHW-1673S Adapter: 0 ID: 0

Read mode : Secure
Utilize accurate stream : Yes
Defeat audio cache : Yes
Make use of C2 pointers : No

Read offset correction : 12
Overread into Lead-In and Lead-Out : No
Fill up missing offset samples with silence : Yes
Delete leading and trailing silent blocks : No
Null samples used in CRC calculations : Yes
Used interface : Installed external ASPI interface
Gap handling : Appended to previous track

Used output format : User Defined Encoder
Selected bitrate : 128 kBit/s
Quality : High
Add ID3 tag : No
Command line compressor : H:Program FilesExact Audio CopyFlacflac.exe
Additional command line options : -V -8 -T "artist=%a" -T "title=%t" -T "album=%g" -T "date=%y" -T "tracknumber=%n" -T "genre=%m" %s
TOC of the extracted CD

Track | Start | Length | Start sector | End sector
---------------------------------------------------------
1 | 0:00.00 | 2:22.40 | 0 | 10689
2 | 2:22.40 | 5:25.11 | 10690 | 35075
3 | 7:47.51 | 5:06.26 | 35076 | 58051
4 | 12:54.02 | 5:18.15 | 58052 | 81916
5 | 18:12.17 | 4:21.02 | 81917 | 101493
6 | 22:33.19 | 4:07.35 | 101494 | 120053
7 | 26:40.54 | 4:09.56 | 120054 | 138784
8 | 30:50.35 | 4:04.10 | 138785 | 157094
9 | 34:54.45 | 5:32.37 | 157095 | 182031
Track 1

Filename F:Music AudioFLACErik Mongrain - Equilibrium\01 - A Ripple Effect.wav

Pre-gap length 0:00:02.00

Peak level 100.0 %
Track quality 100.0 %
Test CRC 897052FB
Copy CRC 897052FB
Track not present in AccurateRip database
Copy OK

Track 2

Filename F:Music AudioFLACErik Mongrain - Equilibrium\02 - Alone In The Mist.wav

Peak level 100.0 %
Track quality 100.0 %
Test CRC 7BE252B9
Copy CRC 7BE252B9
Track not present in AccurateRip database
Copy OK

Track 3

Filename F:Music AudioFLACErik Mongrain - Equilibrium\03 - Equilibrium.wav

Peak level 100.0 %
Track quality 100.0 %
Test CRC 6C8FB6C8
Copy CRC 6C8FB6C8
Track not present in AccurateRip database
Copy OK

Track 4

Filename F:Music AudioFLACErik Mongrain - Equilibrium\04 - Muse.wav

Peak level 100.0 %
Track quality 100.0 %
Test CRC 4D8F205A
Copy CRC 4D8F205A
Track not present in AccurateRip database
Copy OK

Track 5

Filename F:Music AudioFLACErik Mongrain - Equilibrium\05 - The Silent Fool.wav

Peak level 100.0 %
Track quality 100.0 %
Test CRC DB70F4A8
Copy CRC DB70F4A8
Track not present in AccurateRip database
Copy OK

Track 6

Filename F:Music AudioFLACErik Mongrain - Equilibrium\06 - Pandora's Box.wav

Peak level 100.0 %
Track quality 100.0 %
Test CRC 1DCC54D9
Copy CRC 1DCC54D9
Track not present in AccurateRip database
Copy OK

Track 7

Filename F:Music AudioFLACErik Mongrain - Equilibrium\07 - Eon's Illusion.wav

Peak level 100.0 %
Track quality 100.0 %
Test CRC 8E01B05C
Copy CRC 8E01B05C
Track not present in AccurateRip database
Copy OK

Track 8

Filename F:Music AudioFLACErik Mongrain - Equilibrium\08 - Raindigger.wav

Peak level 100.0 %
Track quality 100.0 %
Test CRC 0AF0F96F
Copy CRC 0AF0F96F
Track not present in AccurateRip database
Copy OK

Track 9

Filename F:Music AudioFLACErik Mongrain - Equilibrium\09 - Maelström.wav

Peak level 100.0 %
Track quality 100.0 %
Test CRC CA020149
Copy CRC CA020149
Track not present in AccurateRip database
Copy OK
None of the tracks are present in the AccurateRip database

No errors occurred

End of status report


Дополнительная информация:
Эрик Монгрейн (фр. Erik Mongrain, р. 12 апреля 1980, в Монреале, Канада) — канадский композитор и гитарист, известный за использование в своей игре уникального стиля двуручного теппинга.Эрик сам называет свой стиль- "Acoustic Instrumental Contemporary Music"
Эрик Монгрейн начал самостоятельное изучение игры на гитаре в возрасте 14 лет. Свои первые уроки он брал на электрогитаре слушая такие группы как Metallica и Nirvana, но быстро развил в себе интерес к акустической гитаре и к классической музыке, особый интерес он проявил к творению Иоганна Себастьяна Баха, что побудило его постичь самостоятельно нотную грамоту.
В возрасте 18 лет Эрик Монгрейн начал свои эксперименты с игрой на акустической гитаре в стиле теппинга (резкое прижатие струны пальцем правой руки) и позднее перешел к стилю двуручного теппинга или «фортепьянной технике» (левая рука извлекает звук самостоятельно, без помощи правой). В этот период своего творчества он услышал впервые таких гитаристов как Don Ross и Michael Hedges. Он о них отзывается так:" Для меня это было как откровение, наконец я нашёл свою нишу..." Долгое время (около семи лет) Эрик играл на улице зарабатывая этим на жизнь, побывал в качестве уличного музыканта во многих странах. В интервью немецкому магазину "Akustik Gitarre" он говорит: "тэппингу я научился на улицах США, Испании, Португалии, Бельгии и Франции". Успех пришёл к ниму лишь с мировой популярностью на видеопортале Youtube.
Его первый самостоятельный альбом вышел в 2006 году



   Похожие торренты   Размер 
В этой теме нет новых непрочитанных сообщений. Erik Norlander - Коллекция (1997-2012) FLAC, APE

3.53 ГБ

В этой теме нет новых непрочитанных сообщений. Erik Truffaz & Murcof - Being Human Being (2014) FLAC

343.01 МБ

В этой теме нет новых непрочитанных сообщений. Equilibrium - Armageddon Limited Edition [2CD] (2016) FLAC

762.42 МБ

В этой теме нет новых непрочитанных сообщений. Erik Norlander - Коллекция (1997-2012) MP3

1.2 ГБ

В этой теме нет новых непрочитанных сообщений. VA - Equilibrium (2015) MP3

198.39 МБ

В этой теме нет новых непрочитанных сообщений. Kerani - Equilibrium (2015) MP3

135.17 МБ

В этой теме нет новых непрочитанных сообщений. Fobee - Equilibrium (2017) MP3

120.23 МБ




Вы не можете начинать темы
Вы не можете отвечать на сообщения
Вы не можете редактировать свои сообщения
Вы не можете удалять свои сообщения
Вы не можете добавлять вложения

Перейти:  
 Вход
ppkBB3cker v.2 © 2008-2014 @ PPK
[ Time : 0.014s | 18 Queries | GZIP : Off ]

Для правообладателей, рекламодателей и роскомнадзора: rstracker[собачка]yandex.ru
cron