img
Planets Sun Sun Sun
Статистика раздачи
Автор: mari | Размер: 385 МБ | Добавлен: 28 июл 2013
Скачать торрент
Скачать торрент

СообщениеДобавлено: 28 июл 2013 

#77

Alice in Chains - Black Gives Way to Blue
Год выпуска диска: 2009
Стиль: Гранж
Формат/Кодек: FLAC (tracks.+cue)
Битрейт аудио: lossless
Продолжительность: 54:10

Трек-лист:

1. All Secrets Known (4:42)
2. Check My Brain (3:57)
3. Last of My Kind (5:52)
4. Your Decision (4:43)
5. A Looking in View (7:05)
6. When the Sun Rose Again (4:00)
7. Acid Bubble (6:55)
8. Lessons Learned (4:16)
9. Take Her Out (3:59)
10. Private Hell (5:38)
11. Black Gives Way to Blue (3:03)

Exact Audio Copy V0.99 prebeta 5 from 4. May 2009
EAC extraction logfile from 17. September 2009, 18:53
Alice in Chains / Black Gives Way to Blue
Used drive : LITE-ON DVDRW LH-20A1S Adapter: 3 ID: 0
Read mode : Secure
Utilize accurate stream : Yes
Defeat audio cache : Yes
Make use of C2 pointers : No
Read offset correction : 6
Overread into Lead-In and Lead-Out : No
Fill up missing offset samples with silence : Yes
Delete leading and trailing silent blocks : No
Null samples used in CRC calculations : Yes
Used interface : Native Win32 interface for Win NT & 2000
Gap handling : Appended to previous track
Used output format : User Defined Encoder
Selected bitrate : 768 kBit/s
Quality : High
Add ID3 tag : No
Command line compressor : C:Program FilesExact Audio CopyFLACFLAC.EXE
Additional command line options : -V -8 -T "artist=%a" -T "title=%t" -T "album=%g" -T "date=%y" -T "tracknumber=%n" -T "genre=%m" %s
TOC of the extracted CD
Track | Start | Length | Start sector | End sector
---------------------------------------------------------
1 | 0:00.00 | 4:42.39 | 0 | 21188
2 | 4:42.39 | 3:57.68 | 21189 | 39031
3 | 8:40.32 | 5:52.68 | 39032 | 65499
4 | 14:33.25 | 4:43.13 | 65500 | 86737
5 | 19:16.38 | 7:06.00 | 86738 | 118687
6 | 26:22.38 | 4:00.18 | 118688 | 136705
7 | 30:22.56 | 6:55.71 | 136706 | 167901
8 | 37:18.52 | 4:16.58 | 167902 | 187159
9 | 41:35.35 | 4:00.13 | 187160 | 205172
10 | 45:35.48 | 5:38.35 | 205173 | 230557
11 | 51:14.08 | 3:03.42 | 230558 | 244324
Track 1
Filename C:TempNew RipsFLAC Rips\01 - All Secrets Known.wav
Pre-gap length 0:00:02.00
Peak level 97.7 %
Track quality 100.0 %
Test CRC A25C8F8B
Copy CRC A25C8F8B
Track not present in AccurateRip database
Copy OK
Track 2
Filename C:TempNew RipsFLAC Rips\02 - Check My Brain.wav
Peak level 97.7 %
Track quality 100.0 %
Test CRC EBEF9B85
Copy CRC EBEF9B85
Track not present in AccurateRip database
Copy OK
Track 3
Filename C:TempNew RipsFLAC Rips\03 - Last of My Kind.wav
Peak level 97.7 %
Track quality 100.0 %
Test CRC 9D699CC5
Copy CRC 9D699CC5
Track not present in AccurateRip database
Copy OK
Track 4
Filename C:TempNew RipsFLAC Rips\04 - Your Decision.wav
Peak level 97.7 %
Track quality 100.0 %
Test CRC D2329D82
Copy CRC D2329D82
Track not present in AccurateRip database
Copy OK
Track 5
Filename C:TempNew RipsFLAC Rips\05 - A Looking in View.wav
Peak level 97.7 %
Track quality 99.9 %
Test CRC 6206B47A
Copy CRC 6206B47A
Track not present in AccurateRip database
Copy OK
Track 6
Filename C:TempNew RipsFLAC Rips\06 - When the Sun Rose Again.wav
Peak level 97.7 %
Track quality 100.0 %
Test CRC 6FA66DFE
Copy CRC 6FA66DFE
Track not present in AccurateRip database
Copy OK
Track 7
Filename C:TempNew RipsFLAC Rips\07 - Acid Bubble.wav
Peak level 97.7 %
Track quality 100.0 %
Test CRC 2F44E85F
Copy CRC 2F44E85F
Track not present in AccurateRip database
Copy OK
Track 8
Filename C:TempNew RipsFLAC Rips\08 - Lesson Learned.wav
Peak level 97.7 %
Track quality 100.0 %
Test CRC B3DDA2F2
Copy CRC B3DDA2F2
Track not present in AccurateRip database
Copy OK
Track 9
Filename C:TempNew RipsFLAC Rips\09 - Take Her Out.wav
Peak level 97.7 %
Track quality 100.0 %
Test CRC F7CC10B6
Copy CRC F7CC10B6
Track not present in AccurateRip database
Copy OK
Track 10
Filename C:TempNew RipsFLAC Rips10 - Private Hell.wav
Peak level 97.7 %
Track quality 100.0 %
Test CRC 063FE412
Copy CRC 063FE412
Track not present in AccurateRip database
Copy OK
Track 11
Filename C:TempNew RipsFLAC Rips11 - Black Gives Way to Blue.wav
Peak level 97.5 %
Track quality 100.0 %
Test CRC 94F3A313
Copy CRC 94F3A313
Track not present in AccurateRip database
Copy OK
None of the tracks are present in the AccurateRip database
No errors occurred
End of status report


Дополнительная информация: Black Gives Way to Blue - четвертый студийный альбом американской рок-группы Alice in Chains выпущенный 29 сентября 2009. Это первый студийный альбом за 14 лет, а также первый альбом с новым вокалистом.



   Похожие торренты   Размер 
В этой теме нет новых непрочитанных сообщений. Alice in Chains - Rainier Fog [2018, Grunge, Hard Rock, MP3] / Rock/ Punk/ Metal/ Alternative

124.79 МБ

В этой теме нет новых непрочитанных сообщений. Black Sabbath - Black Sabbath [Deluxe Edition] (Japan SHM-CD) (1970/2009) FLAC

551.76 МБ

В этой теме нет новых непрочитанных сообщений. District 13 - As The Blue Sky Faded To Black (2017) MP3

142.84 МБ

В этой теме нет новых непрочитанных сообщений. The Original Blues Brothers Band - The Last Shade of Blue Before Black (2017) MP3

142.1 МБ

В этой теме нет новых непрочитанных сообщений. Dream Theater – Black Clouds & Silver Linings [2009] (2016) FLAC | Remaster

538.99 МБ

В этой теме нет новых непрочитанных сообщений. Systems In Blue - Out Of The Blue (2008) FLAC

443.24 МБ

В этой теме нет новых непрочитанных сообщений. Black 'N Blue - Nasty Nasty [Reissue] (1986/2003) MP3

88.74 МБ




Вы не можете начинать темы
Вы не можете отвечать на сообщения
Вы не можете редактировать свои сообщения
Вы не можете удалять свои сообщения
Вы не можете добавлять вложения

Перейти:  
 Вход
ppkBB3cker v.2 © 2008-2014 @ PPK
[ Time : 0.024s | 18 Queries | GZIP : Off ]

Для правообладателей, рекламодателей и роскомнадзора: rstracker[собачка]yandex.ru
cron