img
Planets Sun Sun Sun
Статистика раздачи
Автор: mari | Размер: 315.47 МБ | Добавлен: 28 июл 2013
Скачать торрент
Скачать торрент

СообщениеДобавлено: 28 июл 2013 

#77

Avatar - Avatar
Год выпуска диска: 2009
Стиль: Melodic Death Metal
Формат/Кодек: FLAC (tracks+.cue)
Битрейт аудио: lossless
Продолжительность: 43:04

Трек-лист:

1. Queen Of Blades (04:29)
2. The Great Pretender (04:03)
3. Shattered Wings (03:35)
4. Reload (04:14)
5. Out Of Our Minds (04:29)
6. Deeper Down (03:47)
7. Revolution Of Two (05:08)
8. Roadkill (03:29)
9. Pigfucker (02:04)
10.Lullaby (Death All Over)(07:46)

Exact Audio Copy V0.99 prebeta 5 from 4. May 2009
EAC extraction logfile from 11. November 2009, 20:25
Avatar / Avatar
Used drive : SlimtypeDVD A DS8AZH Adapter: 0 ID: 0
Read mode : Secure
Utilize accurate stream : Yes
Defeat audio cache : Yes
Make use of C2 pointers : No
Read offset correction : 594
Overread into Lead-In and Lead-Out : No
Fill up missing offset samples with silence : Yes
Delete leading and trailing silent blocks : No
Null samples used in CRC calculations : Yes
Used interface : Native Win32 interface for Win NT & 2000
Gap handling : Appended to previous track
Used output format : User Defined Encoder
Selected bitrate : 320 kBit/s
Quality : High
Add ID3 tag : No
Command line compressor : C:Program FilesExact Audio CopyFlacflac.exe
Additional command line options : -V -8 -T "artist=%a" -T "title=%t" -T "album=%g" -T "date=%y" -T "tracknumber=%n" -T "genre=%m" %s
TOC of the extracted CD
Track | Start | Length | Start sector | End sector
---------------------------------------------------------
1 | 0:00.00 | 4:28.43 | 0 | 20142
2 | 4:28.43 | 4:03.28 | 20143 | 38395
3 | 8:31.71 | 3:35.11 | 38396 | 54531
4 | 12:07.07 | 4:13.61 | 54532 | 73567
5 | 16:20.68 | 4:29.00 | 73568 | 93742
6 | 20:49.68 | 3:46.42 | 93743 | 110734
7 | 24:36.35 | 5:08.06 | 110735 | 133840
8 | 29:44.41 | 3:29.23 | 133841 | 149538
9 | 33:13.64 | 2:04.25 | 149539 | 158863
10 | 35:18.14 | 7:46.30 | 158864 | 193843
Track 1
Filename C:EACRIPSAvatar - 2009 - Avatar�1 - Queen Of Blades.wav
Pre-gap length 0:00:02.00
Peak level 98.9 %
Track quality 100.0 %
Test CRC 22C6155D
Copy CRC 22C6155D
Track not present in AccurateRip database
Copy OK
Track 2
Filename C:EACRIPSAvatar - 2009 - Avatar�2 - The Great Pretender.wav
Peak level 98.9 %
Track quality 100.0 %
Test CRC A11C2826
Copy CRC A11C2826
Track not present in AccurateRip database
Copy OK
Track 3
Filename C:EACRIPSAvatar - 2009 - Avatar�3 - Shattered Wings.wav
Pre-gap length 0:00:01.54
Peak level 98.9 %
Track quality 100.0 %
Test CRC 6BB9AD4A
Copy CRC 6BB9AD4A
Track not present in AccurateRip database
Copy OK
Track 4
Filename C:EACRIPSAvatar - 2009 - Avatar�4 - Reload.wav
Pre-gap length 0:00:01.54
Peak level 98.9 %
Track quality 100.0 %
Test CRC EDB776A2
Copy CRC EDB776A2
Track not present in AccurateRip database
Copy OK
Track 5
Filename C:EACRIPSAvatar - 2009 - Avatar�5 - Out Of Our Minds.wav
Pre-gap length 0:00:01.54
Peak level 98.9 %
Track quality 100.0 %
Test CRC 49C59DE7
Copy CRC 49C59DE7
Track not present in AccurateRip database
Copy OK
Track 6
Filename C:EACRIPSAvatar - 2009 - Avatar�6 - Deeper Down.wav
Peak level 98.9 %
Track quality 100.0 %
Test CRC BAE80900
Copy CRC BAE80900
Track not present in AccurateRip database
Copy OK
Track 7
Filename C:EACRIPSAvatar - 2009 - Avatar�7 - Revolution Of Two.wav
Pre-gap length 0:00:01.96
Peak level 98.9 %
Track quality 100.0 %
Test CRC 7BFD9EDD
Copy CRC 7BFD9EDD
Track not present in AccurateRip database
Copy OK
Track 8
Filename C:EACRIPSAvatar - 2009 - Avatar�8 - Roadkill.wav
Pre-gap length 0:00:01.54
Peak level 98.9 %
Track quality 100.0 %
Test CRC 32F4C4A1
Copy CRC 32F4C4A1
Track not present in AccurateRip database
Copy OK
Track 9
Filename C:EACRIPSAvatar - 2009 - Avatar�9 - Pigfucker.wav
Pre-gap length 0:00:00.96
Peak level 98.9 %
Track quality 100.0 %
Test CRC 234C5576
Copy CRC 234C5576
Track not present in AccurateRip database
Copy OK
Track 10
Filename C:EACRIPSAvatar - 2009 - Avatar10 - Lullaby (Death All Over).wav
Pre-gap length 0:00:01.54
Peak level 98.9 %
Track quality 100.0 %
Test CRC F773C934
Copy CRC F773C934
Track not present in AccurateRip database
Copy OK
None of the tracks are present in the AccurateRip database
No errors occurred
End of status report



   Похожие торренты   Размер 
В этой теме нет новых непрочитанных сообщений. Avatar - Avatar Country (2018) MP3

101.24 МБ

В этой теме нет новых непрочитанных сообщений. Avatar - Feathers & Flesh (2016) MP3

87.66 МБ

В этой теме нет новых непрочитанных сообщений. Phoenix Titan - Avatar Of Fire [2019, Heavy, Power Metal, MP3] / Rock/ Punk/ Metal/ Alternative

92.25 МБ

В этой теме нет новых непрочитанных сообщений. Despina Vandi - Greatest Hits 2001-2009 [Deluxe Edition] (2009) FLAC

1.04 ГБ

В этой теме нет новых непрочитанных сообщений. VA Евровидение 2009/Eurovision 2009 [2009, Минусовка, MP3]

291.93 МБ

В этой теме нет новых непрочитанных сообщений. N.A.S.A. - Unique (2009) FLAC

481.51 МБ

В этой теме нет новых непрочитанных сообщений. MUTe - On Off (2009) FLAC

423.58 МБ




Вы не можете начинать темы
Вы не можете отвечать на сообщения
Вы не можете редактировать свои сообщения
Вы не можете удалять свои сообщения
Вы не можете добавлять вложения

Перейти:  
 Вход
ppkBB3cker v.2 © 2008-2014 @ PPK
[ Time : 0.020s | 16 Queries | GZIP : Off ]

Для правообладателей, рекламодателей и роскомнадзора: rstracker[собачка]yandex.ru
cron