img
Planets Sun Sun Sun
Статистика раздачи
Автор: mari | Размер: 242.99 МБ | Добавлен: 28 июл 2013
Скачать торрент
Скачать торрент

СообщениеДобавлено: 28 июл 2013 

#77

Los Lobos-Los Lobos Goes Disney
Год выпуска диска: 2009
Стиль: Rock&Roll
Формат/Кодек: APE (image+.cue)
Битрейт аудио: lossless
Продолжительность: 38:52

Трек-лист:

1. Heigh-Ho (2:37)
2. I Wan'na Be Like You (3:38)
3. Not In Nottingham (3:19)
4. The Tiki Tiki Tiki Room (2:51)
5. Grim Grinning Ghosts (3:32)
6. I Will Go Sailing No More (2:22)
7. The Ugly Bug Ball (3:27)
8. Cruella De Vil (3:47)
9. Bella Notte (2:50)
10. Zip-A-Dee-Doo-Dah (2:48)
11. Bare Necessities (2:58)
12. Oo-De-Lally (2:09)
13. When You Wish Upon A Star/It's A Small World (2:28)

Exact Audio Copy V0.99 prebeta 4 from 23. January 2008
Отчёт EAC об извлечении, выполненном 30. октября 2009, 20:38
Los Lobos / Los Lobos Goes Disney
Дисковод: HL-DT-STDVDRAM GSA-H42N Adapter: 1 ID: 0
Режим чтения : Достоверность
Использование точного потока : Да
Отключение кэша аудио : Да
Использование указателей C2 : Нет
Коррекция смещения при чтении : 667
Способность читать области Lead-in и Lead-out : Нет
Заполнение пропущенных сэмплов тишиной : Да
Удаление блоков с тишиной в начале и конце : Нет
При вычислениях CRC использовались нулевые сэмплы : Да
Интерфейс : Установленный внешний ASPI-интерфейс
Выходной формат : Monkey's Audio Lossless Encoder v3.99 DLL
Формат сэмплов : High Lossless Compression
TOC извлечённого CD
Трек | Старт | Длительность | Начальный сектор | Конечный сектор
---------------------------------------------------------------------
1 | 0:00.00 | 2:37.03 | 0 | 11777
2 | 2:37.03 | 3:38.52 | 11778 | 28179
3 | 6:15.55 | 3:19.53 | 28180 | 43157
4 | 9:35.33 | 2:50.72 | 43158 | 55979
5 | 12:26.30 | 3:32.30 | 55980 | 71909
6 | 15:58.60 | 2:22.05 | 71910 | 82564
7 | 18:20.65 | 3:27.44 | 82565 | 98133
8 | 21:48.34 | 3:47.48 | 98134 | 115206
9 | 25:36.07 | 2:50.62 | 115207 | 128018
10 | 28:26.69 | 2:48.66 | 128019 | 140684
11 | 31:15.60 | 2:58.11 | 140685 | 154045
12 | 34:13.71 | 2:09.59 | 154046 | 163779
13 | 36:23.55 | 2:27.69 | 163780 | 174873
Характеристики диапазона извлечения и сообщения об ошибках
Выбранный диапазон
Имя файла H:MP 3Los Lobos.2009.''Los Lobos Goes Disney''Los Lobos.2009.''Los Lobos Goes Disney''.ape
Пиковый уровень 96.6 %
Качество диапазона 100.0 %
CRC копии EFD06014
Копирование... OK
Ошибок не произошло
AccurateRip: сводка
Трек 1 нет в базе данных
Трек 2 нет в базе данных
Трек 3 нет в базе данных
Трек 4 нет в базе данных
Трек 5 нет в базе данных
Трек 6 нет в базе данных
Трек 7 нет в базе данных
Трек 8 нет в базе данных
Трек 9 нет в базе данных
Трек 10 нет в базе данных
Трек 11 нет в базе данных
Трек 12 нет в базе данных
Трек 13 нет в базе данных
Ни одного трека нет в базе AccurateRip
Конец отчёта



   Похожие торренты   Размер 
В этой теме нет новых непрочитанных сообщений. Los Lobos - Gates of Gold (2015) FLAC

280.9 МБ

В этой теме нет новых непрочитанных сообщений. VA - The Best Of Disney (2015) MP3

378.69 МБ

В этой теме нет новых непрочитанных сообщений. VA - We Love Disney [Deluxe] (2015) FLAC

315.86 МБ

В этой теме нет новых непрочитанных сообщений. VA - Radio Disney Music Awards (2015) FLAC

346.9 МБ

В этой теме нет новых непрочитанных сообщений. OST - Disney Karaoke Series: Moana (2017) AAC от BestSound ExKinoRay | iTunes

41.46 МБ

В этой теме нет новых непрочитанных сообщений. VA Евровидение 2009/Eurovision 2009 [2009, Минусовка, MP3]

291.93 МБ

В этой теме нет новых непрочитанных сообщений. t.A.T.u - Not Gonna Get Us (Live Eurovision 2009) (2009) HDTVRip 720p от Kamikkadze | 60 fps

393.15 МБ




Вы не можете начинать темы
Вы не можете отвечать на сообщения
Вы не можете редактировать свои сообщения
Вы не можете удалять свои сообщения
Вы не можете добавлять вложения

Перейти:  
 Вход
ppkBB3cker v.2 © 2008-2014 @ PPK
[ Time : 0.020s | 16 Queries | GZIP : Off ]

Для правообладателей, рекламодателей и роскомнадзора: rstracker[собачка]yandex.ru
cron