img
Planets Sun Sun Sun
Статистика раздачи
Автор: mari | Размер: 410.12 МБ | Добавлен: 28 июл 2013
Скачать торрент
Скачать торрент

СообщениеДобавлено: 28 июл 2013 

#77

Powerwolf - Bible Of The Beast
Год выпуска диска: 2009
Стиль: Симфоник пауэр метал
Формат/Кодек: APE (image+.cue)
Битрейт аудио: lossless
Продолжительность: 47:44

Трек-лист:

1. Opening: Prelude To Purgatory (1:14)
2. Raise Your Fist, Evangelist (4:00)
3. Moscow After Dark (3:15)
4. Panic In The Pentagram (5:15)
5. Catholic In The Morning... Satanist At Night (3:58)
6. Seven Deadly Saints (3:36)
7. Werewolves Of Armenia (3:55)
8. We Take The Church By Storm (3:55)
9. Resurrection By Erection (3:51)
10. Midnight Messiah (4:13)
11. St. Satan's Day (4:31)
12. Wolves Against The World (6:05)

Exact Audio Copy V0.99 prebeta 4 from 23. January 2008
EAC extraction logfile from 29. April 2009, 21:11
Powerwolf / Bible Of The Beast
Used drive : ATAPI DVD A DH20A4P Adapter: 3 ID: 0
Read mode : Secure
Utilize accurate stream : Yes
Defeat audio cache : Yes
Make use of C2 pointers : No
Read offset correction : 6
Overread into Lead-In and Lead-Out : No
Fill up missing offset samples with silence : Yes
Delete leading and trailing silent blocks : No
Null samples used in CRC calculations : Yes
Used interface : Installed external ASPI interface
Used output format : Monkey's Audio Lossless Encoder
Selected bitrate : High Lossless Compression
Quality : High
Add ID3 tag : Yes
Command line compressor : C:Program FilesMonkey's AudioMAC.exe
TOC of the extracted CD
Track | Start | Length | Start sector | End sector
---------------------------------------------------------
1 | 0:00.00 | 1:13.61 | 0 | 5535
2 | 1:13.61 | 3:59.61 | 5536 | 23521
3 | 5:13.47 | 3:14.42 | 23522 | 38113
4 | 8:28.14 | 5:14.41 | 38114 | 61704
5 | 13:42.55 | 3:57.50 | 61705 | 79529
6 | 17:40.30 | 3:35.45 | 79530 | 95699
7 | 21:16.00 | 3:54.53 | 95700 | 113302
8 | 25:10.53 | 3:54.54 | 113303 | 130906
9 | 29:05.32 | 3:50.53 | 130907 | 148209
10 | 32:56.10 | 4:12.55 | 148210 | 167164
11 | 37:08.65 | 4:30.54 | 167165 | 187468
12 | 41:39.44 | 6:04.49 | 187469 | 214817
Range status and errors
Selected range
Filename D:DownloadPowerwolf - Bible Of The Beast.wav
Peak level 100.0 %
Range quality 100.0 %
Copy CRC DDF95378
Copy OK
No errors occurred
AccurateRip summary
Track 1 not present in database
Track 2 not present in database
Track 3 not present in database
Track 4 not present in database
Track 5 not present in database
Track 6 not present in database
Track 7 not present in database
Track 8 not present in database
Track 9 not present in database
Track 10 not present in database
Track 11 not present in database
Track 12 not present in database
None of the tracks are present in the AccurateRip database
End of status report



   Похожие торренты   Размер 
В этой теме нет новых непрочитанных сообщений. Powerwolf - Metallum Nostrum (2019) MP3

131.24 МБ

В этой теме нет новых непрочитанных сообщений. Powerwolf - Дискография (2005-2013) FLAC

1.53 ГБ

В этой теме нет новых непрочитанных сообщений. Powerwolf - Blessed & Possessed [Deluxe Edition] (2015) MP3

225.79 МБ

В этой теме нет новых непрочитанных сообщений. Powerwolf - Blessed & Possessed [Deluxe Edition] (2015) MP3

225.38 МБ

В этой теме нет новых непрочитанных сообщений. Powerwolf - Blessed & Possessed [Tour Edition] (2017) MP3

276.46 МБ

В этой теме нет новых непрочитанных сообщений. Powerwolf - Дискография [2005 - 2019, Power Metal, MP3]

2.14 ГБ

В этой теме нет новых непрочитанных сообщений. Powerwolf - Blessed & Possessed [Deluxe Edition] (2015) FLAC

711.32 МБ




Вы не можете начинать темы
Вы не можете отвечать на сообщения
Вы не можете редактировать свои сообщения
Вы не можете удалять свои сообщения
Вы не можете добавлять вложения

Перейти:  
 Вход
ppkBB3cker v.2 © 2008-2014 @ PPK
[ Time : 0.021s | 16 Queries | GZIP : Off ]

Для правообладателей, рекламодателей и роскомнадзора: rstracker[собачка]yandex.ru
cron