img
Planets Sun Sun Sun
Статистика раздачи
Автор: mari | Размер: 314.87 МБ | Добавлен: 28 июл 2013
Скачать торрент
Скачать торрент

СообщениеДобавлено: 28 июл 2013 

#77
Название: X-Perience - Take Me Home
Формат/Кодек: FLAC(image+.cue)
Битрейт: Lossless
Жанр: Synth-pop, Eurodance
Год издания: 1997
Общая продолжительность: 40мин.40сек.

Треклист:

01. X-Perience - Intro (01:30)
02. X-Perience - I Don't Care (03:20)
03. X-Perience - Game Of Love (03:58)
04. X-Perience - Leave Me Alone (03:11)
05. X-Perience - We Are What We Are (03:27)
06. X-Perience - Take Me Home (03:50)
07. X-Perience - Land Of Tomatoes (03:38)
08. X-Perience - Keep The Faith (04:13)
09. X-Perience - Rain (04:14)
10. X-Perience - Red Rain (Mirror) (03:30)
11. X-Perience - Secrets (05:32)
12. X-Perience - Daydream Part II (03:44)
Код:
Exact Audio Copy V0.99 prebeta 5 from 4. May 2009

Отчёт EAC об извлечении, выполненном 14. ноября 2009, 12:48

X-Perience / Take Me Home

Дисковод: ASUS    DRW-1814BLT   Adapter: 2  ID: 0

Режим чтения                 : Достоверность
Использование точного потока : Да
Отключение кэша аудио        : Да
Использование указателей C2  : Нет

Коррекция смещения при чтении                     : 6
Способность читать области Lead-in и Lead-out     : Нет
Заполнение пропущенных сэмплов тишиной            : Да
Удаление блоков с тишиной в начале и конце        : Нет
При вычислениях CRC использовались нулевые сэмплы : Да
Интерфейс                                         : Установленный внешний ASPI-интерфейс

Выходной формат : Внутренние WAV-операции
Формат сэмплов  : 44.100 Гц; 16 бит; стерео
TOC извлечённого CD

     Трек |   Старт  | Длительность | Начальный сектор | Конечный сектор
    ---------------------------------------------------------------------
       1  |  0:00.00 |    1:30.17   |           0      |       6766     
       2  |  1:30.17 |    3:22.35   |        6767      |      21951     
       3  |  4:52.52 |    4:00.05   |       21952      |      39956     
       4  |  8:52.57 |    3:11.30   |       39957      |      54311     
       5  | 12:04.12 |    3:29.25   |       54312      |      70011     
       6  | 15:33.37 |    3:52.03   |       70012      |      87414     
       7  | 19:25.40 |    3:40.17   |       87415      |     103931     
       8  | 23:05.57 |    4:15.20   |      103932      |     123076     
       9  | 27:21.02 |    4:14.73   |      123077      |     142199     
      10  | 31:36.00 |    3:30.30   |      142200      |     157979     
      11  | 35:06.30 |    5:34.20   |      157980      |     183049     
      12  | 40:40.50 |    3:44.20   |      183050      |     199869     
Характеристики диапазона извлечения и сообщения об ошибках

Выбранный диапазон

     Имя файла E:LosslessX-Perience - Take Me Home.wav

     Пиковый уровень 98.0 %
     Качество диапазона 99.9 %
     CRC копии BFB5B613
     Копирование... OK

Ошибок не произошло
AccurateRip: сводка
Трек  1  точность не определена (достоверность 11)  [1DDAAC45], AccurateRip вернул [87DCA38A]
Трек  2  точность не определена (достоверность 11)  [1DF547E5], AccurateRip вернул [263B9D13]
Трек  3  точность не определена (достоверность 11)  [57424664], AccurateRip вернул [2D9BD03C]
Трек  4  точность не определена (достоверность 11)  [3667B1E5], AccurateRip вернул [C877D43E]
Трек  5  точность не определена (достоверность 11)  [041D1900], AccurateRip вернул [324326E3]
Трек  6  точность не определена (достоверность 11)  [01199B57], AccurateRip вернул [03A23D89]
Трек  7  точность не определена (достоверность 11)  [3FC403A6], AccurateRip вернул [6FB94D09]
Трек  8  точность не определена (достоверность 11)  [35240AE1], AccurateRip вернул [E6FE1679]
Трек  9  точность не определена (достоверность 11)  [2FF7490A], AccurateRip вернул [5EA4817F]
Трек 10  точность не определена (достоверность 11)  [5D8D9A42], AccurateRip вернул [831C2C2E]
Трек 11  точность не определена (достоверность 11)  [D126C86E], AccurateRip вернул [7CD3DBC9]
Трек 12  точность не определена (достоверность 11)  [D76501C6], AccurateRip вернул [67822B73]
Ни один трек не прошёл проверки на точность
В вашей базе может быть иной вариант штамповки диска

Конец отчёта


Доп.информация: Рип с собственного диска.



   Похожие торренты   Размер 
В этой теме нет новых непрочитанных сообщений. Katherine Jenkins - Home Sweet Home (2014) MP3 от BestSound ExKinoRay

128.15 МБ

В этой теме нет новых непрочитанных сообщений. Helmut Brandt/Conny Jackel Broncos Home-Band Mainstream Orchestra - Swing Home [Vinyl-Rip 24-bit] (1970) WAV

1.18 ГБ

В этой теме нет новых непрочитанных сообщений. Yo-Yo Ma - Sing Me Home (2016) FLAC | 24-bit

774.93 МБ

В этой теме нет новых непрочитанных сообщений. Blue October - Home (2016) FLAC

414.91 МБ

В этой теме нет новых непрочитанных сообщений. Pain - Coming Home (2016) FLAC

293.79 МБ

В этой теме нет новых непрочитанных сообщений. Parijat - Journey Home (2016) FLAC

300.06 МБ

В этой теме нет новых непрочитанных сообщений. Låpsley - Long Way Home (2016) FLAC

249.75 МБ




Вы не можете начинать темы
Вы не можете отвечать на сообщения
Вы не можете редактировать свои сообщения
Вы не можете удалять свои сообщения
Вы не можете добавлять вложения

Перейти:  
 Вход
ppkBB3cker v.2 © 2008-2014 @ PPK
[ Time : 0.344s | 16 Queries | GZIP : Off ]

Для правообладателей, рекламодателей и роскомнадзора: rstracker[собачка]yandex.ru
cron