img
Planets Sun Sun Sun
Статистика раздачи
Автор: mari | Размер: 429.04 МБ | Добавлен: 28 июл 2013
Скачать торрент
Скачать торрент

СообщениеДобавлено: 28 июл 2013 

#77

Ensiferum - From Afar
Год выпуска диска: 2009
Стиль: Folk Metal
Формат/Кодек: FLAC (tracks+.cue)
Битрейт аудио: lossless
Продолжительность: 60:25

Трек-лист:

1. By the Dividing Stream (03:50)
2. From Afar (04:51)
3. Twilight Tavern (05:38)
4. Heathen Throne (11:09)
5. Elusive Reaches (03:26)
6. Stone Cold Metal (07:25)
7. Smoking Ruins (06:40)
8. Tumman Virran Taa 00:52)
9. The Longest Journey (Heathen Throne Part II) (12:49)
10. Vandraren (Nordman cover) (03:41)

Exact Audio Copy V0.99 prebeta 5 from 4. May 2009
EAC Auslese-Logdatei vom 11. September 2009, 20:45
Ensiferum / From Afar
Benutztes Laufwerk : Optiarc DVD RW AD-7191A Adapter: 0 ID: 0
Lesemodus : Sicher
Benutze Accurate Stream : Ja
Audio Puffer abgeschaltet : Nein
Benutze C2 Fehlerinformationen : Nein
Leseoffset Korrektur : 6
Ьberlesen in das Lead-In und Lead-Out : Nein
Fьlle fehlende Offsetsample mit Stille auf : Ja
Lцsche fьhrende und nachfolgende stille Blцcke : Nein
Null Samples gehen in CRC Berechnungen ein : Nein
Benutzte Schnittstelle : Natьrliche Win32 Schnittstelle fьr Win NT/2000/XP
Pausenbehandlung : Nicht erkannt, daher hinter dem vorigen Track angehдngt
Benutztes Ausgabeformat : Benutzerdefinierter Komprimierer
Gewдhlte Bitrate : 1024 kBit/s
Qualitдt : Hoch
Fьge ID3 Tag hinzu : Nein
Kommandozeilen Komprimierer : C:Program Files (x86)Exact Audio CopyFlacflac.exe
Zusдtzliche Kommandozeilenoptionen : -8 -V -T "ARTIST=%a" -T "TITLE=%t" -T "ALBUM=%g" -T "DATE=%y" -T "TRACKNUMBER=%n" -T "GENRE=%m" -T "COMMENT=%e" %s -o %d
TOC der ausgelesenen CD
Track | Start | Lдnge | Startsektor | Endsektor
-------------------------------------------------------
1 | 0:00.00 | 3:50.02 | 0 | 17251
2 | 3:50.02 | 4:51.46 | 17252 | 39122
3 | 8:41.48 | 5:38.56 | 39123 | 64528
4 | 14:20.29 | 11:09.08 | 64529 | 114711
5 | 25:29.37 | 3:26.31 | 114712 | 130192
6 | 28:55.68 | 7:25.36 | 130193 | 163603
7 | 36:21.29 | 6:40.12 | 163604 | 193615
8 | 43:01.41 | 0:52.38 | 193616 | 197553
9 | 43:54.04 | 12:52.38 | 197554 | 255491
10 | 56:46.42 | 3:41.53 | 255492 | 272119
Track 1
Dateiname C:UsersMetallerMusicNeuer OrdnerEnsiferum - From Afar\01 - Ensiferum - By The Dividing Stream.wav
Spitzenpegel 60.5 %
Track Qualitдt 100.0 %
Test CRC 590CFB70
Kopie CRC 590CFB70
Track ist nicht enthalten in der AccurateRip Datenbank
Kopie OK
Track 2
Dateiname C:UsersMetallerMusicNeuer OrdnerEnsiferum - From Afar\02 - Ensiferum - From Afar.wav
Spitzenpegel 97.7 %
Track Qualitдt 100.0 %
Test CRC 5C734AB5
Kopie CRC 5C734AB5
Track ist nicht enthalten in der AccurateRip Datenbank
Kopie OK
Track 3
Dateiname C:UsersMetallerMusicNeuer OrdnerEnsiferum - From Afar\03 - Ensiferum - Twilight Tavern.wav
Spitzenpegel 94.4 %
Track Qualitдt 100.0 %
Test CRC 64867875
Kopie CRC 64867875
Track ist nicht enthalten in der AccurateRip Datenbank
Kopie OK
Track 4
Dateiname C:UsersMetallerMusicNeuer OrdnerEnsiferum - From Afar\04 - Ensiferum - Heathen Throne.wav
Spitzenpegel 98.1 %
Track Qualitдt 99.9 %
Test CRC 07B96451
Kopie CRC 07B96451
Track ist nicht enthalten in der AccurateRip Datenbank
Kopie OK
Track 5
Dateiname C:UsersMetallerMusicNeuer OrdnerEnsiferum - From Afar\05 - Ensiferum - Elusive Reaches.wav
Spitzenpegel 100.0 %
Track Qualitдt 100.0 %
Test CRC 88D91541
Kopie CRC 88D91541
Track ist nicht enthalten in der AccurateRip Datenbank
Kopie OK
Track 6
Dateiname C:UsersMetallerMusicNeuer OrdnerEnsiferum - From Afar\06 - Ensiferum - Stone Cold Metal.wav
Spitzenpegel 94.4 %
Track Qualitдt 100.0 %
Test CRC 34700804
Kopie CRC 34700804
Track ist nicht enthalten in der AccurateRip Datenbank
Kopie OK
Track 7
Dateiname C:UsersMetallerMusicNeuer OrdnerEnsiferum - From Afar\07 - Ensiferum - Smoking Ruins.wav
Spitzenpegel 100.0 %
Track Qualitдt 100.0 %
Test CRC 3F7BA1D4
Kopie CRC 3F7BA1D4
Track ist nicht enthalten in der AccurateRip Datenbank
Kopie OK
Track 8
Dateiname C:UsersMetallerMusicNeuer OrdnerEnsiferum - From Afar\08 - Ensiferum - Tumman Virran Taa.wav
Spitzenpegel 68.0 %
Track Qualitдt 100.0 %
Test CRC 35FE5963
Kopie CRC 35FE5963
Track ist nicht enthalten in der AccurateRip Datenbank
Kopie OK
Track 9
Dateiname C:UsersMetallerMusicNeuer OrdnerEnsiferum - From Afar\09 - Ensiferum - The Longest Journey.wav
Spitzenpegel 94.4 %
Track Qualitдt 100.0 %
Test CRC 98760B00
Kopie CRC 98760B00
Track ist nicht enthalten in der AccurateRip Datenbank
Kopie OK
Track 10
Dateiname C:UsersMetallerMusicNeuer OrdnerEnsiferum - From Afar10 - Ensiferum - Vandraren.wav
Spitzenpegel 94.4 %
Track Qualitдt 100.0 %
Test CRC 5F5D46CE
Kopie CRC 5F5D46CE
Track ist nicht enthalten in der AccurateRip Datenbank
Kopie OK
Keiner der Tracks ist in der AccurateRip Datenbank vorhanden
Keine Fehler aufgetreten
Ende des Statusreports[



   Похожие торренты   Размер 
В этой теме нет новых непрочитанных сообщений. Ensiferum - Дискография (2001-2017) FLAC

5.41 ГБ

В этой теме нет новых непрочитанных сообщений. Ensiferum - One Man Army [Limited Edition] (2015) FLAC

491.43 МБ

В этой теме нет новых непрочитанных сообщений. Ensiferum - Two Paths (2017) MP3

123.44 МБ

В этой теме нет новых непрочитанных сообщений. Ensiferum - One Man Army [Limited Edition] (2015) MP3

155.64 МБ

В этой теме нет новых непрочитанных сообщений. Despina Vandi - Greatest Hits 2001-2009 [Deluxe Edition] (2009) FLAC

1.04 ГБ

В этой теме нет новых непрочитанных сообщений. VA Евровидение 2009/Eurovision 2009 [2009, Минусовка, MP3]

291.93 МБ

В этой теме нет новых непрочитанных сообщений. Arktau Eos - Ai Ma Ra (2009) FLAC

432.6 МБ




Вы не можете начинать темы
Вы не можете отвечать на сообщения
Вы не можете редактировать свои сообщения
Вы не можете удалять свои сообщения
Вы не можете добавлять вложения

Перейти:  
 Вход
ppkBB3cker v.2 © 2008-2014 @ PPK
[ Time : 0.018s | 18 Queries | GZIP : Off ]

Для правообладателей, рекламодателей и роскомнадзора: rstracker[собачка]yandex.ru
cron