img
Planets Sun Sun Sun
Статистика раздачи
Автор: mari | Размер: 384.87 МБ | Добавлен: 28 июл 2013
Скачать торрент
Скачать торрент

СообщениеДобавлено: 28 июл 2013 

#77
Название: Apocalyptica - Cult
Формат/Кодек: FLAC(image+.cue)
Битрейт: Lossless
Жанр: Symphonic Heavy Metal
Год издания: 2000
Общая продолжительность: 49мин. 22сек.

Треклист:
01. Apocalyptica - Path (03:06)
02. Apocalyptica - Struggle (03:25)
03. Apocalyptica - Romance(03:27)
04. Apocalyptica - Pray! (04:22)
05. Apocalyptica - In Memoriam (04:39)
06. Apocalyptica - Hyperventilation (04:25)
07. Apocalyptica - Beyond Time(03:57)
08. Apocalyptica - Hope (03:24)
09. Apocalyptica - Kaamos (04:41)
10. Apocalyptica - Coma (06:46)
11. Apocalyptica - Hall of the Mountain King (03:27)
12. Apocalyptica - Until It Sleeps(03:14)
13. Apocalyptica - Fight Fire With Fire(03:25)
Код:
Exact Audio Copy V0.99 prebeta 5 from 4. May 2009

Отчёт EAC об извлечении, выполненном 14. ноября 2009, 15:35

Apocalyptica / Cult

Дисковод: ASUS    DRW-1814BLT   Adapter: 2  ID: 0

Режим чтения                 : Достоверность
Использование точного потока : Да
Отключение кэша аудио        : Да
Использование указателей C2  : Нет

Коррекция смещения при чтении                     : 6
Способность читать области Lead-in и Lead-out     : Нет
Заполнение пропущенных сэмплов тишиной            : Да
Удаление блоков с тишиной в начале и конце        : Нет
При вычислениях CRC использовались нулевые сэмплы : Да
Интерфейс                                         : Установленный внешний ASPI-интерфейс

Выходной формат : Внутренние WAV-операции
Формат сэмплов  : 44.100 Гц; 16 бит; стерео
TOC извлечённого CD

     Трек |   Старт  | Длительность | Начальный сектор | Конечный сектор
    ---------------------------------------------------------------------
       1  |  0:00.00 |    3:06.14   |           0      |      13963     
       2  |  3:06.14 |    3:26.51   |       13964      |      29464     
       3  |  6:32.65 |    3:27.17   |       29465      |      45006     
       4  | 10:00.07 |    4:24.65   |       45007      |      64871     
       5  | 14:24.72 |    4:42.34   |       64872      |      86055     
       6  | 19:07.31 |    4:25.27   |       86056      |     105957     
       7  | 23:32.58 |    3:57.53   |      105958      |     123785     
       8  | 27:30.36 |    3:25.37   |      123786      |     139197     
       9  | 30:55.73 |    4:45.28   |      139198      |     160600     
      10  | 35:41.26 |    6:57.61   |      160601      |     191936     
      11  | 42:39.12 |    3:29.26   |      191937      |     207637     
      12  | 46:08.38 |    3:14.19   |      207638      |     222206     
      13  | 49:22.57 |    3:25.22   |      222207      |     237603     
Характеристики диапазона извлечения и сообщения об ошибках

Выбранный диапазон

     Имя файла E:LosslessApocalyptica - Cult.wav

     Пиковый уровень 98.8 %
     Качество диапазона 100.0 %
     CRC копии FCFC40CB
     Копирование... OK

Ошибок не произошло
AccurateRip: сводка
Трек  1  точное извлечение (доверие 10)  [D40DD83A]
Трек  2  точное извлечение (доверие 10)  [A834D941]
Трек  3  точное извлечение (доверие 10)  [DDB1A829]
Трек  4  точное извлечение (доверие 10)  [BE6A3088]
Трек  5  точное извлечение (доверие 10)  [D7A76E7D]
Трек  6  точное извлечение (доверие 10)  [77387AAA]
Трек  7  точное извлечение (доверие 10)  [9B2D0F43]
Трек  8  точное извлечение (доверие 10)  [0C45488B]
Трек  9  точное извлечение (доверие 10)  [2FA6AB7C]
Трек 10  точное извлечение (доверие 10)  [BA53729C]
Трек 11  точное извлечение (доверие 10)  [1819A9B1]
Трек 12  точное извлечение (доверие 10)  [9E8E5DF0]
Трек 13  точное извлечение (доверие 10)  [B693F40D]
Все треки извлечены точно

Конец отчёта

AUDIOCHECKER v2.0 beta (build 457) - by Dester - opdester@freemail.hu
~~~~~~~~~~~~~~~~~~~~~~~~~~~~~~~~~~
-=== DO NOT EDIT THIS FILE! ===-

Path: ...Apocalyptica - Cult

1 -=- Apocalyptica - Cult.flac -=- CDDA (100%)

83322068

Доп.информация:Рип с собственного диска,полиграфия присутствует.



   Похожие торренты   Размер 
В этой теме нет новых непрочитанных сообщений. Cult Of Haze - Cult Of Haze [2019, Synthpop, EBM, Darkwave, Gothic, MP3] / Pop/ Eurodance/ Disco/ Synthpop/ Spacesynth/ Electronic

68.01 МБ

В этой теме нет новых непрочитанных сообщений. Apocalyptica - Shadowmaker (2015) FLAC

429.8 МБ

В этой теме нет новых непрочитанных сообщений. The Cult - Hidden City (2016) FLAC

367.97 МБ

В этой теме нет новых непрочитанных сообщений. The Cult - Hidden City (2016) FLAC

364.44 МБ

В этой теме нет новых непрочитанных сообщений. The Cult - Sonic Temple [Remastered] (1989) FLAC

394.61 МБ

В этой теме нет новых непрочитанных сообщений. Blue Oyster Cult - Agents Of Fortune (1976) FLAC

259.74 МБ

В этой теме нет новых непрочитанных сообщений. OST - Дракула 2000 / Dracula 2000 [Patrick Lussier] (2000) FLAC

417.11 МБ




Вы не можете начинать темы
Вы не можете отвечать на сообщения
Вы не можете редактировать свои сообщения
Вы не можете удалять свои сообщения
Вы не можете добавлять вложения

Перейти:  
 Вход
ppkBB3cker v.2 © 2008-2014 @ PPK
[ Time : 0.015s | 16 Queries | GZIP : Off ]

Для правообладателей, рекламодателей и роскомнадзора: rstracker[собачка]yandex.ru
cron