img
Planets Sun Sun Sun
Статистика раздачи
Автор: mari | Размер: 467.79 МБ | Добавлен: 28 июл 2013
Скачать торрент
Скачать торрент

СообщениеДобавлено: 28 июл 2013 

#77

Doro - Fear No Evil
Год выпуска диска: 2009
Стиль: Heavy Metal
Формат/Кодек: FLAC (image+.cue)
Битрейт аудио: losless
Продолжительность: 56:43

Трек-лист:

1. The Night Of The Warlock (5:44)
2. Running From The Devil (3:37)
3. Celebrate (4:55)
4. Caught In A Battle (3:10)
5. Herzblut (4:40)
6. On The Run (4:42)
7. Walking With The Angels (4:56)
8. I Lay My Head Upon My Sword (3:38)
9. It Kills Me (4:28)
10. Long Lost For Love (3:27)
11. 25 Years (4:48)
12. Wildfire (Digi Bonus) (4:24)
13. You Won My Love (Digi Bonus) (4:13)

Exact Audio Copy V0.99 prebeta 4 from 23. January 2008
Отчёт EAC об извлечении, выполненном 3. февраля 2009, 19:52
DORO / Fear No Evil (Ltd.Ed.)
Дисковод: _NEC DVD_RW ND-3500AG Adapter: 3 ID: 0
Режим чтения : Достоверность
Использование точного потока : Да
Отключение кэша аудио : Да
Использование указателей C2 : Нет
Коррекция смещения при чтении : 48
Способность читать области Lead-in и Lead-out : Нет
Заполнение пропущенных сэмплов тишиной : Да
Удаление блоков с тишиной в начале и конце : Нет
При вычислениях CRC использовались нулевые сэмплы : Да
Интерфейс : Установленный внешний ASPI-интерфейс
Выходной формат : Внутренние WAV-операции
Формат сэмплов : 44.100 Гц; 16 бит; стерео
TOC извлечённого CD
Трек | Старт | Длительность | Начальный сектор | Конечный сектор
---------------------------------------------------------------------
1 | 0:00.00 | 5:43.49 | 0 | 25773
2 | 5:43.49 | 3:37.21 | 25774 | 42069
3 | 9:20.70 | 4:55.33 | 42070 | 64227
4 | 14:16.28 | 3:09.73 | 64228 | 78475
5 | 17:26.26 | 4:40.36 | 78476 | 99511
6 | 22:06.62 | 4:42.33 | 99512 | 120694
7 | 26:49.20 | 4:55.43 | 120695 | 142862
8 | 31:44.63 | 3:37.38 | 142863 | 159175
9 | 35:22.26 | 4:28.05 | 159176 | 179280
10 | 39:50.31 | 3:27.05 | 179281 | 194810
11 | 43:17.36 | 4:48.35 | 194811 | 216445
12 | 48:05.71 | 4:24.01 | 216446 | 236246
13 | 52:29.72 | 4:12.63 | 236247 | 255209
14 | 59:14.60 | 9:10.31 | 266610 | 307890
Характеристики диапазона извлечения и сообщения об ошибках
Выбранный диапазон
Имя файла D:DORO - Fear No Evil (Ltd.Ed.).wav
Пиковый уровень 100.0 %
Качество диапазона 100.0 %
CRC теста 4A90401E
CRC копии 4A90401E
Копирование... OK
Ошибок не произошло
AccurateRip: сводка
Трек 1 нет в базе данных
Трек 2 нет в базе данных
Трек 3 нет в базе данных
Трек 4 нет в базе данных
Трек 5 нет в базе данных
Трек 6 нет в базе данных
Трек 7 нет в базе данных
Трек 8 нет в базе данных
Трек 9 нет в базе данных
Трек 10 нет в базе данных
Трек 11 нет в базе данных
Трек 12 нет в базе данных
Трек 13 нет в базе данных
Ни одного трека нет в базе AccurateRip
Конец отчёта



   Похожие торренты   Размер 
В этой теме нет новых непрочитанных сообщений. Primal Fear - Best of Fear [Japanese Edition] (2017) FLAC

1.06 ГБ

В этой теме нет новых непрочитанных сообщений. Primal Fear - Best of Fear (2017) MP3

324.67 МБ

В этой теме нет новых непрочитанных сообщений. Primal Fear - Best of Fear (2017) MP3

1.01 ГБ

В этой теме нет новых непрочитанных сообщений. Evil Conspiracy - Evil Comes [2019, Heavy Metal, MP3] / Rock/ Punk/ Metal/ Alternative

117.42 МБ

В этой теме нет новых непрочитанных сообщений. Doro - Strong And Proud [30 Years Of Rock And Metal] (2016) FLAC

588.83 МБ

В этой теме нет новых непрочитанных сообщений. The Other - Fear Itself (2015) FLAC

374.77 МБ

В этой теме нет новых непрочитанных сообщений. Sia - 1000 Forms Of Fear (2014) FLAC | 24-bit

1011.81 МБ




Вы не можете начинать темы
Вы не можете отвечать на сообщения
Вы не можете редактировать свои сообщения
Вы не можете удалять свои сообщения
Вы не можете добавлять вложения

Перейти:  
 Вход
ppkBB3cker v.2 © 2008-2014 @ PPK
[ Time : 0.016s | 18 Queries | GZIP : Off ]

Для правообладателей, рекламодателей и роскомнадзора: rstracker[собачка]yandex.ru
cron