Planets Sun Sun Sun

COVID-19 - Последняя информация о коронавирусе на сайте Минздрава


Статистика раздачи
Автор: mari | Размер: 301.07 МБ | Добавлен: 28 июл 2013


Скачать торрент
Скачать торрент

СообщениеДобавлено: 28 июл 2013 

#77

UFO - The Visitor
Год выпуска диска: 2009
Стиль: Hard Rock
Формат/Кодек: APE (mage+.cue)
Битрейт аудио: lossless
Продолжительность: 42:25

Трек-лист:
1. UFO - Saving me (5:08)
2. UFO - On the waterfront (3:50)
3. UFO - Hell driver (04:26)
4. UFO - Stop breaking down (4:55)
5. UFO - Rock ready (3:06)
6. UFO - Living proof (4:32)
7. UFO - Can't buy a thrill (5:14)
8. UFO - Forsaken (3:57)
9. UFO - Villains & thieves (3:34)
10. UFO - Stranger in town (3:39)

Exact Audio Copy V0.99 prebeta 4 from 23. January 2008
Отчёт EAC об извлечении, выполненном 17. июня 2009, 20:10
UFO / The Visitor
Дисковод: HL-DT-STDVDRAM GSA-H44N Adapter: 0 ID: 0
Режим чтения : Достоверность
Использование точного потока : Да
Отключение кэша аудио : Да
Использование указателей C2 : Нет
Коррекция смещения при чтении : 667
Способность читать области Lead-in и Lead-out : Нет
Заполнение пропущенных сэмплов тишиной : Да
Удаление блоков с тишиной в начале и конце : Нет
При вычислениях CRC использовались нулевые сэмплы : Нет
Интерфейс : Встроенный Win32-интерфейс для Win NT/2000
Выходной формат : Monkey's Audio (без потерь)
Выбранный битрейт : Normal Lossless Compression
Качество : Высокий
Добавление ID3-тэга : Да
Утилита сжатия : C:Program FilesMonkey's AudioMAC.exe
TOC извлечённого CD
Трек | Старт | Длительность | Начальный сектор | Конечный сектор
---------------------------------------------------------------------
1 | 0:00.00 | 5:08.33 | 0 | 23132
2 | 5:08.33 | 3:50.20 | 23133 | 40402
3 | 8:58.53 | 4:26.14 | 40403 | 60366
4 | 13:24.67 | 4:55.48 | 60367 | 82539
5 | 18:20.40 | 3:06.69 | 82540 | 96558
6 | 21:27.34 | 4:32.47 | 96559 | 117005
7 | 26:00.06 | 5:14.23 | 117006 | 140578
8 | 31:14.29 | 3:57.20 | 140579 | 158373
9 | 35:11.49 | 3:34.36 | 158374 | 174459
10 | 38:46.10 | 3:39.55 | 174460 | 190939
Характеристики диапазона извлечения и сообщения об ошибках
Выбранный диапазон
Имя файла D:DownloadsМузыкаArchivподготовкаUFO - The VisitorUFO - The Visitor.wav
Пиковый уровень 97.7 %
Качество диапазона 100.0 %
CRC копии 85209BE8
Копирование... OK
Ошибок не произошло
Конец отчёта



   Похожие торренты   Размер 
В этой теме нет новых непрочитанных сообщений. UFO - Too Hot To Handle: The Very Best Of UFO (2012) FLAC

1.07 ГБ

В этой теме нет новых непрочитанных сообщений. UFO - The Best of UFO: Will The Last Man Standing (Turn Out The Light) (Compilation) [2019, Hard Rock, MP3] / Rock/ Punk/ Metal/ Alternative

331.97 МБ

В этой теме нет новых непрочитанных сообщений. Neuronium - The New Visitor (1981) MP3 от Vanila

83.66 МБ

В этой теме нет новых непрочитанных сообщений. UFO - Salentino Cuts (2017) MP3

108.03 МБ

В этой теме нет новых непрочитанных сообщений. Vinnie Moore - To The Core (2009) APE

439.35 МБ

В этой теме нет новых непрочитанных сообщений. Cinema Bizarre - ToyZ (2009) APE

426.52 МБ

В этой теме нет новых непрочитанных сообщений. Europe - Discography (1983-2009) FLAC, APE

8.78 ГБ




Вы не можете начинать темы
Вы не можете отвечать на сообщения
Вы не можете редактировать свои сообщения
Вы не можете удалять свои сообщения
Вы не можете добавлять вложения

Перейти:  
 Вход
ppkBB3cker v.2 © 2008-2014 @ PPK
[ Time : 0.027s | 18 Queries | GZIP : Off ]

Для правообладателей, рекламодателей и роскомнадзора: rstracker[собачка]yandex.ru
cron