img
Planets Sun Sun Sun
Статистика раздачи
Автор: mari | Размер: 1.05 ГБ | Добавлен: 28 июл 2013
Скачать торрент
Скачать торрент

СообщениеДобавлено: 28 июл 2013 

#77
Название:VA - Dream Dance Vol.17(2CD)
Формат/Кодек:FLAC (tracks+.cue)
Битрейт:Lossless
Стиль:House,Trance]
Год издания:2000
Общая продолжительность:140мин. 02сек.

Трек-лист:
01. [color=#006699]Marc Et Claude - I Need Your Lovin' (03:44)
02. Kai Tracid - Tiefenrausch (The Deep Blue) (The Deep Blue Radio Mix) (03:57)
03. Beam & Yanou - Sound Of Love (Video Mix) (03:26)
04. Tomcraft vs. Sunbeam - Versus (Radio Cut) (03:43)
05. Miss Shiva - Do You Feel So Right (Short Cut) (03:35)
06. Airfire feat. Talla 2XLC - No Signs Of Life (03:48)
07. Frank-E & Mars-L - Rotate (Radio Edit) (03:37)
08. DJ Mind-X - Colours (Night Club Mix) (04:46)
09. C.J. Stone - Infinity (Single Mix) (03:34)
10. Winx - Don't Laugh 2000 (Timo Maas Y2K Radio Mix) (03:35)
11. DJ Mellow-D - @ Night (Dutch Force Remix Edit) (04:10)
12. Agnelli & Nelson - Embrace (7'' Radio Edit) (02:47)
13. Skywalker - At Heaven (Short Version) (03:49)
14. Mauro Picotto - Komodo (Alternative Mix) (03:44)
15. Sebastian - Toccata (Pulsedriver Remix (Short Cut) (03:39)
16. Club Invaders vs. Miss Thunderpussy - Mirage (Radio Edit) (03:33)
17. Agenda - Destiny (Short Cut) (03:36)
18. Schiller - Ein Schцner Tag (Kaycee Mischung - Edit) (03:42)
19. Terra V. - The Last Escape (Radio Mix) (03:51)
20. ATB - The Summer (Airplay Mix) (03:44)
Продолжительность CD1: 71мин. 23сек.
Код:
Exact Audio Copy V0.99 prebeta 5 from 4. May 2009

Отчёт EAC об извлечении, выполненном 16. ноября 2009, 15:44

Various Artists / Dream Dance Vol. 17 CD1

Дисковод: ASUS    DRW-1814BLT   Adapter: 2  ID: 0

Режим чтения                 : Достоверность
Использование точного потока : Да
Отключение кэша аудио        : Да
Использование указателей C2  : Нет

Коррекция смещения при чтении                     : 6
Способность читать области Lead-in и Lead-out     : Нет
Заполнение пропущенных сэмплов тишиной            : Да
Удаление блоков с тишиной в начале и конце        : Нет
При вычислениях CRC использовались нулевые сэмплы : Да
Интерфейс                                         : Установленный внешний ASPI-интерфейс
Обработка зазоров                                 : Добавлено к предыдущему треку

Выходной формат          : Пользовательский кодировщик
Выбранный битрейт        : 1024 kBit/s
Качество                 : Высокий
Добавление ID3-тэга      : Нет
Утилита сжатия           : F:SoftExact Audio CopyFLACFLAC.EXE
Дополнительные параметры : -6 -V -T "ARTIST=%a" -T "TITLE=%t" -T "ALBUM=%g" -T "DATE=%y" -T "TRACKNUMBER=%n" -T "GENRE=%m" -T "COMMENT=%e" %s -o %d
TOC извлечённого CD

     Трек |   Старт  | Длительность | Начальный сектор | Конечный сектор
    ---------------------------------------------------------------------
       1  |  0:00.00 |    3:46.09   |           0      |      16958     
       2  |  3:46.09 |    3:59.10   |       16959      |      34893     
       3  |  7:45.19 |    3:28.49   |       34894      |      50542     
       4  | 11:13.68 |    3:45.50   |       50543      |      67467     
       5  | 14:59.43 |    3:37.72   |       67468      |      83814     
       6  | 18:37.40 |    3:50.34   |       83815      |     101098     
       7  | 22:27.74 |    3:39.42   |      101099      |     117565     
       8  | 26:07.41 |    4:48.67   |      117566      |     139232     
       9  | 30:56.33 |    3:36.20   |      139233      |     155452     
      10  | 34:32.53 |    3:37.72   |      155453      |     171799     
      11  | 38:10.50 |    4:12.27   |      171800      |     190726     
      12  | 42:23.02 |    2:49.54   |      190727      |     203455     
      13  | 45:12.56 |    3:51.27   |      203456      |     220807     
      14  | 49:04.08 |    3:46.32   |      220808      |     237789     
      15  | 52:50.40 |    3:41.22   |      237790      |     254386     
      16  | 56:31.62 |    3:35.17   |      254387      |     270528     
      17  | 60:07.04 |    3:38.65   |      270529      |     286943     
      18  | 63:45.69 |    3:44.44   |      286944      |     303787     
      19  | 67:30.38 |    3:53.22   |      303788      |     321284     
      20  | 71:23.60 |    3:44.67   |      321285      |     338151     
Трек  1

     Имя файла E:LosslessI Need Your Lovin'.wav

     Длина предзазора  0:00:02.00

     Пиковый уровень 98.0 %
     Качество трека 99.9 %
     CRC теста EF59607B
     CRC копии EF59607B
     Трек не обнаружен в базе AccurateRip
     Копирование... OK

Трек  2

     Имя файла E:LosslessTiefenrausch (The Deep Blue) (The Deep Blue Radio Mix).wav

     Длина предзазора  0:00:02.00

     Пиковый уровень 98.0 %
     Качество трека 100.0 %
     CRC теста 36BA7117
     CRC копии 36BA7117
     Трек не обнаружен в базе AccurateRip
     Копирование... OK

Трек  3

     Имя файла E:LosslessSound Of Love (Video Mix).wav

     Длина предзазора  0:00:02.00

     Пиковый уровень 92.7 %
     Качество трека 100.0 %
     CRC теста 5DFE250B
     CRC копии 5DFE250B
     Трек не обнаружен в базе AccurateRip
     Копирование... OK

Трек  4

     Имя файла E:LosslessVersus (Radio Cut).wav

     Длина предзазора  0:00:02.00

     Пиковый уровень 98.0 %
     Качество трека 100.0 %
     CRC теста B7887E33
     CRC копии B7887E33
     Трек не обнаружен в базе AccurateRip
     Копирование... OK

Трек  5

     Имя файла E:LosslessDo You Feel So Right (Short Cut).wav

     Длина предзазора  0:00:02.00

     Пиковый уровень 98.0 %
     Качество трека 100.0 %
     CRC теста C47A91EF
     CRC копии C47A91EF
     Трек не обнаружен в базе AccurateRip
     Копирование... OK

Трек  6

     Имя файла E:LosslessNo Signs Of Life.wav

     Длина предзазора  0:00:02.00

     Пиковый уровень 98.0 %
     Качество трека 99.9 %
     CRC теста B3E47246
     CRC копии B3E47246
     Трек не обнаружен в базе AccurateRip
     Копирование... OK

Трек  7

     Имя файла E:LosslessRotate (Radio Edit).wav

     Длина предзазора  0:00:02.00

     Пиковый уровень 98.1 %
     Качество трека 100.0 %
     CRC теста 070FE00F
     CRC копии 070FE00F
     Трек не обнаружен в базе AccurateRip
     Копирование... OK

Трек  8

     Имя файла E:LosslessColours (Night Club Mix).wav

     Длина предзазора  0:00:02.00

     Пиковый уровень 98.0 %
     Качество трека 99.9 %
     CRC теста 3DFBEBBD
     CRC копии 3DFBEBBD
     Трек не обнаружен в базе AccurateRip
     Копирование... OK

Трек  9

     Имя файла E:LosslessInfinity (Single Mix).wav

     Длина предзазора  0:00:02.00

     Пиковый уровень 98.2 %
     Качество трека 100.0 %
     CRC теста CFA79C88
     CRC копии CFA79C88
     Трек не обнаружен в базе AccurateRip
     Копирование... OK

Трек 10

     Имя файла E:LosslessDon't Laugh 2000 (Timo Maas Y2K Radio Mix).wav

     Длина предзазора  0:00:02.00

     Пиковый уровень 98.1 %
     Качество трека 100.0 %
     CRC теста DE5117B1
     CRC копии DE5117B1
     Трек не обнаружен в базе AccurateRip
     Копирование... OK

Трек 11

     Имя файла E:Lossless@ Night (Dutch Force Remix Edit).wav

     Длина предзазора  0:00:02.00

     Пиковый уровень 98.0 %
     Качество трека 99.9 %
     CRC теста 7EED646A
     CRC копии 7EED646A
     Трек не обнаружен в базе AccurateRip
     Копирование... OK

Трек 12

     Имя файла E:LosslessEmbrace (7'' Radio Edit).wav

     Длина предзазора  0:00:02.00

     Пиковый уровень 95.3 %
     Качество трека 100.0 %
     CRC теста A9921E7E
     CRC копии A9921E7E
     Трек не обнаружен в базе AccurateRip
     Копирование... OK

Трек 13

     Имя файла E:LosslessAt Heaven (Short Version).wav

     Длина предзазора  0:00:02.00

     Пиковый уровень 98.0 %
     Качество трека 100.0 %
     CRC теста 031DC737
     CRC копии 031DC737
     Трек не обнаружен в базе AccurateRip
     Копирование... OK

Трек 14

     Имя файла E:LosslessKomodo (Alternative Mix).wav

     Длина предзазора  0:00:02.00

     Пиковый уровень 97.6 %
     Качество трека 100.0 %
     CRC теста ADF989C8
     CRC копии ADF989C8
     Трек не обнаружен в базе AccurateRip
     Копирование... OK

Трек 15

     Имя файла E:LosslessToccata (Pulsedriver Remix (Short Cut)).wav

     Длина предзазора  0:00:02.00

     Пиковый уровень 98.3 %
     Качество трека 100.0 %
     CRC теста 27D4C795
     CRC копии 27D4C795
     Трек не обнаружен в базе AccurateRip
     Копирование... OK

Трек 16

     Имя файла E:LosslessMirage (Radio Edit).wav

     Длина предзазора  0:00:02.00

     Пиковый уровень 98.0 %
     Качество трека 100.0 %
     CRC теста 3408DC39
     CRC копии 3408DC39
     Трек не обнаружен в базе AccurateRip
     Копирование... OK

Трек 17

     Имя файла E:LosslessDestiny (Short Cut).wav

     Длина предзазора  0:00:02.00

     Пиковый уровень 98.3 %
     Качество трека 100.0 %
     CRC теста F9B5AB7F
     CRC копии F9B5AB7F
     Трек не обнаружен в базе AccurateRip
     Копирование... OK

Трек 18

     Имя файла E:LosslessEin Schцner Tag (Kaycee Mischung - Edit).wav

     Длина предзазора  0:00:02.00

     Пиковый уровень 98.0 %
     Качество трека 100.0 %
     CRC теста 4EDBE546
     CRC копии 4EDBE546
     Трек не обнаружен в базе AccurateRip
     Копирование... OK

Трек 19

     Имя файла E:LosslessThe Last Escape (Radio Mix).wav

     Длина предзазора  0:00:02.00

     Пиковый уровень 98.4 %
     Качество трека 100.0 %
     CRC теста 71B7E8B3
     CRC копии 71B7E8B3
     Трек не обнаружен в базе AccurateRip
     Копирование... OK

Трек 20

     Имя файла E:LosslessThe Summer (Airplay Mix).wav

     Длина предзазора  0:00:02.00

     Пиковый уровень 98.0 %
     Качество трека 100.0 %
     CRC теста A2D32A3E
     CRC копии A2D32A3E
     Трек не обнаружен в базе AccurateRip
     Копирование... OK
Ни одного трека нет в базе AccurateRip

Ошибок не произошло

Конец отчёта

[color=green]
[color=black]AUDIOCHECKER v2.0 beta (build 457) - by Dester - opdester@freemail.hu
~~~~~~~~~~~~~~~~~~~~~~~~~~~~~~~~~~
-=== DO NOT EDIT THIS FILE! ===-

Path: ...Dream Dance Vol. 17 CD1

01 -=- @ Night (Dutch Force Remix Edit).flac -=- CDDA (100%)
02 -=- At Heaven (Short Version).flac -=- CDDA (100%)
03 -=- Colours (Night Club Mix).flac -=- CDDA (100%)
04 -=- Destiny (Short Cut).flac -=- CDDA (100%)
05 -=- Do You Feel So Right (Short Cut).flac -=- CDDA (100%)
06 -=- Don't Laugh 2000 (Timo Maas Y2K Radio Mix).flac -=- CDDA (100%)
07 -=- Ein Schцner Tag (Kaycee Mischung - Edit).flac -=- CDDA (99%)
08 -=- Embrace (7'' Radio Edit).flac -=- CDDA (100%)
09 -=- I Need Your Lovin'.flac -=- CDDA (100%)
10 -=- Infinity (Single Mix).flac -=- CDDA (100%)
11 -=- Komodo (Alternative Mix).flac -=- CDDA (99%)
12 -=- Mirage (Radio Edit).flac -=- CDDA (100%)
13 -=- No Signs Of Life.flac -=- CDDA (100%)
14 -=- Rotate (Radio Edit).flac -=- CDDA (100%)
15 -=- Sound Of Love (Video Mix).flac -=- CDDA (100%)
16 -=- The Last Escape (Radio Mix).flac -=- CDDA (100%)
17 -=- The Summer (Airplay Mix).flac -=- CDDA (100%)
18 -=- Tiefenrausch (The Deep Blue) (The Deep Blue Radio Mix).flac -=- CDDA (100%)
19 -=- Toccata (Pulsedriver Remix (Short Cut)).flac -=- CDDA (100%)
20 -=- Versus (Radio Cut).flac -=- CDDA (100%)

Summary 99,90% CDDA

93661460
[/color]

[color=black]
01. Dr. Motte & Westbam - Love Parade 2000 (One World One Love Parade) (03:27)
02. Tunnel Allstars - Blue Lagoon (03:34)
03. Lovestern Galaktika Projekt Pres. Le Petit Sam - Loca Galaktika (03:30)
04. Airscape - L'Esperanza (03:27)
05. Condor - You Can (Kiss My ...) (03:22)
06. Dee Age - Mixery (03:40)
07. C.O.P. Project - Pornostar (03:16)
08. Dolphin's Mind - Into Th Blue (03:38)
09. DJ Elb - Relieve My Pain (03:36)
10. Progress Feat. The Boy Wunda - Everybody (York Remix) (03:58)
11. Pulsedriver - Barracuda (03:30)
12. Aurelia - Time Flies (03:45)
13. Human Force - Sun Rising (03:36)
14. Meteor Seven - Universal Music (04:00)
15. A.T. Project - Into The Sun (03:08)
16. Cyberstorm - The Sectret Beach (03:49)
17. SM Trax - At The Club (03:11)
18. A Seven Feat. I.C. - Piece Of Heaven (03:49)
19. Bad Habit Boys - Rock Ya (03:33)
20. Chicane - Halcyon (04:03)
Продолжительность CD2: 68мин. 39сек.
Код:
Exact Audio Copy V0.99 prebeta 5 from 4. May 2009

Отчёт EAC об извлечении, выполненном 16. ноября 2009, 16:29

Various / Dream Dance 17 (CD 2/2)

Дисковод: ASUS    DRW-1814BLT   Adapter: 2  ID: 0

Режим чтения                 : Достоверность
Использование точного потока : Да
Отключение кэша аудио        : Да
Использование указателей C2  : Нет

Коррекция смещения при чтении                     : 6
Способность читать области Lead-in и Lead-out     : Нет
Заполнение пропущенных сэмплов тишиной            : Да
Удаление блоков с тишиной в начале и конце        : Нет
При вычислениях CRC использовались нулевые сэмплы : Да
Интерфейс                                         : Установленный внешний ASPI-интерфейс
Обработка зазоров                                 : Добавлено к предыдущему треку

Выходной формат          : Пользовательский кодировщик
Выбранный битрейт        : 1024 kBit/s
Качество                 : Высокий
Добавление ID3-тэга      : Нет
Утилита сжатия           : F:SoftExact Audio CopyFLACFLAC.EXE
Дополнительные параметры : -6 -V -T "ARTIST=%a" -T "TITLE=%t" -T "ALBUM=%g" -T "DATE=%y" -T "TRACKNUMBER=%n" -T "GENRE=%m" -T "COMMENT=%e" %s -o %d
TOC извлечённого CD

     Трек |   Старт  | Длительность | Начальный сектор | Конечный сектор
    ---------------------------------------------------------------------
       1  |  0:00.00 |    3:29.54   |           0      |      15728     
       2  |  3:29.54 |    3:36.55   |       15729      |      31983     
       3  |  7:06.34 |    3:32.49   |       31984      |      47932     
       4  | 10:39.08 |    3:29.50   |       47933      |      63657     
       5  | 14:08.58 |    3:24.34   |       63658      |      78991     
       6  | 17:33.17 |    3:42.70   |       78992      |      95711     
       7  | 21:16.12 |    3:18.34   |       95712      |     110595     
       8  | 24:34.46 |    3:40.52   |      110596      |     127147     
       9  | 28:15.23 |    3:38.47   |      127148      |     143544     
      10  | 31:53.70 |    4:00.57   |      143545      |     161601     
      11  | 35:54.52 |    3:32.32   |      161602      |     177533     
      12  | 39:27.09 |    3:47.27   |      177534      |     194585     
      13  | 43:14.36 |    3:38.70   |      194586      |     211005     
      14  | 46:53.31 |    4:02.52   |      211006      |     229207     
      15  | 50:56.08 |    3:10.52   |      229208      |     243509     
      16  | 54:06.60 |    3:51.09   |      243510      |     260843     
      17  | 57:57.69 |    3:13.72   |      260844      |     275390     
      18  | 61:11.66 |    3:51.35   |      275391      |     292750     
      19  | 65:03.26 |    3:35.69   |      292751      |     308944     
      20  | 68:39.20 |    4:03.02   |      308945      |     327171     
Трек  1

     Имя файла E:LosslessLove Parade 2000 (One World One Love Parade).wav

     Длина предзазора  0:00:02.00

     Пиковый уровень 98.1 %
     Качество трека 100.0 %
     CRC теста 2CA5962F
     CRC копии 2CA5962F
     Трек не обнаружен в базе AccurateRip
     Копирование... OK

Трек  2

     Имя файла E:LosslessBlue Lagoon.wav

     Длина предзазора  0:00:02.00

     Пиковый уровень 98.1 %
     Качество трека 100.0 %
     CRC теста ED705B76
     CRC копии ED705B76
     Трек не обнаружен в базе AccurateRip
     Копирование... OK

Трек  3

     Имя файла E:LosslessLoca Galaktika.wav

     Длина предзазора  0:00:02.00

     Пиковый уровень 98.0 %
     Качество трека 100.0 %
     CRC теста ECF1F2C4
     CRC копии ECF1F2C4
     Трек не обнаружен в базе AccurateRip
     Копирование... OK

Трек  4

     Имя файла E:LosslessL'Esperanza.wav

     Длина предзазора  0:00:02.00

     Пиковый уровень 98.1 %
     Качество трека 100.0 %
     CRC теста 6E47F97C
     CRC копии 6E47F97C
     Трек не обнаружен в базе AccurateRip
     Копирование... OK

Трек  5

     Имя файла E:LosslessYou Can (Kiss My ...).wav

     Длина предзазора  0:00:02.00

     Пиковый уровень 98.0 %
     Качество трека 100.0 %
     CRC теста BC8180EE
     CRC копии BC8180EE
     Трек не обнаружен в базе AccurateRip
     Копирование... OK

Трек  6

     Имя файла E:LosslessMixery.wav

     Длина предзазора  0:00:02.00

     Пиковый уровень 98.2 %
     Качество трека 100.0 %
     CRC теста BF734726
     CRC копии BF734726
     Трек не обнаружен в базе AccurateRip
     Копирование... OK

Трек  7

     Имя файла E:LosslessPornostar.wav

     Длина предзазора  0:00:02.00

     Пиковый уровень 98.0 %
     Качество трека 100.0 %
     CRC теста 35D1A071
     CRC копии 35D1A071
     Трек не обнаружен в базе AccurateRip
     Копирование... OK

Трек  8

     Имя файла E:LosslessInto Th Blue.wav

     Длина предзазора  0:00:02.00

     Пиковый уровень 89.4 %
     Качество трека 100.0 %
     CRC теста DEB4397E
     CRC копии DEB4397E
     Трек не обнаружен в базе AccurateRip
     Копирование... OK

Трек  9

     Имя файла E:LosslessRelieve My Pain.wav

     Длина предзазора  0:00:02.00

     Пиковый уровень 98.0 %
     Качество трека 100.0 %
     CRC теста A9452A03
     CRC копии A9452A03
     Трек не обнаружен в базе AccurateRip
     Копирование... OK

Трек 10

     Имя файла E:LosslessEverybody (York Remix).wav

     Длина предзазора  0:00:02.00

     Пиковый уровень 91.9 %
     Качество трека 99.9 %
     CRC теста 1FD78E49
     CRC копии 1FD78E49
     Трек не обнаружен в базе AccurateRip
     Копирование... OK

Трек 11

     Имя файла E:LosslessBarracuda.wav

     Длина предзазора  0:00:02.00

     Пиковый уровень 94.5 %
     Качество трека 100.0 %
     CRC теста D1CDB71E
     CRC копии D1CDB71E
     Трек не обнаружен в базе AccurateRip
     Копирование... OK

Трек 12

     Имя файла E:LosslessTime Flies.wav

     Длина предзазора  0:00:02.00

     Пиковый уровень 98.0 %
     Качество трека 100.0 %
     CRC теста 973FDEF2
     CRC копии 973FDEF2
     Трек не обнаружен в базе AccurateRip
     Копирование... OK

Трек 13

     Имя файла E:LosslessSun Rising.wav

     Длина предзазора  0:00:02.00

     Пиковый уровень 98.3 %
     Качество трека 100.0 %
     CRC теста 58647330
     CRC копии 58647330
     Трек не обнаружен в базе AccurateRip
     Копирование... OK

Трек 14

     Имя файла E:LosslessUniversal Music.wav

     Длина предзазора  0:00:02.00

     Пиковый уровень 98.1 %
     Качество трека 100.0 %
     CRC теста 0B779D23
     CRC копии 0B779D23
     Трек не обнаружен в базе AccurateRip
     Копирование... OK

Трек 15

     Имя файла E:LosslessInto The Sun.wav

     Длина предзазора  0:00:02.00

     Пиковый уровень 98.1 %
     Качество трека 100.0 %
     CRC теста DE4BBF09
     CRC копии DE4BBF09
     Трек не обнаружен в базе AccurateRip
     Копирование... OK

Трек 16

     Имя файла E:LosslessThe Sectret Beach.wav

     Длина предзазора  0:00:02.00

     Пиковый уровень 98.2 %
     Качество трека 99.9 %
     CRC теста B563AC8C
     CRC копии B563AC8C
     Трек не обнаружен в базе AccurateRip
     Копирование... OK

Трек 17

     Имя файла E:LosslessAt The Club.wav

     Длина предзазора  0:00:02.00

     Пиковый уровень 85.0 %
     Качество трека 100.0 %
     CRC теста 97B47FBE
     CRC копии 97B47FBE
     Трек не обнаружен в базе AccurateRip
     Копирование... OK

Трек 18

     Имя файла E:LosslessPiece Of Heaven.wav

     Длина предзазора  0:00:02.00

     Пиковый уровень 98.0 %
     Качество трека 100.0 %
     CRC теста B707150C
     CRC копии B707150C
     Трек не обнаружен в базе AccurateRip
     Копирование... OK

Трек 19

     Имя файла E:LosslessRock Ya.wav

     Длина предзазора  0:00:02.00

     Пиковый уровень 98.0 %
     Качество трека 100.0 %
     CRC теста FEEDF821
     CRC копии FEEDF821
     Трек не обнаружен в базе AccurateRip
     Копирование... OK

Трек 20

     Имя файла E:LosslessHalcyon.wav

     Длина предзазора  0:00:02.00

     Пиковый уровень 98.1 %
     Качество трека 100.0 %
     CRC теста 3020FF25
     CRC копии 3020FF25
     Трек не обнаружен в базе AccurateRip
     Копирование... OK
Ни одного трека нет в базе AccurateRip

Ошибок не произошло

Конец отчёта

[color=black]AUDIOCHECKER v2.0 beta (build 457) - by Dester - opdester@freemail.hu
~~~~~~~~~~~~~~~~~~~~~~~~~~~~~~~~~~
-=== DO NOT EDIT THIS FILE! ===-

Path: ...Dream Dance Vol. 17 CD2

01 -=- You Can (Kiss My ...).flac -=- CDDA (100%)
02 -=- At The Club.flac -=- CDDA (99%)
03 -=- Barracuda.flac -=- CDDA (100%)
04 -=- Blue Lagoon.flac -=- CDDA (100%)
05 -=- Everybody (York Remix).flac -=- CDDA (100%)
06 -=- Halcyon.flac -=- CDDA (100%)
07 -=- Into Th Blue.flac -=- CDDA (100%)
08 -=- Into The Sun.flac -=- CDDA (100%)
09 -=- L'Esperanza.flac -=- CDDA (100%)
10 -=- Loca Galaktika.flac -=- CDDA (100%)
11 -=- Love Parade 2000 (One World One Love Parade).flac -=- CDDA (100%)
12 -=- Mixery.flac -=- CDDA (100%)
13 -=- Piece Of Heaven.flac -=- CDDA (100%)
14 -=- Pornostar.flac -=- MPEG (95%)
15 -=- Relieve My Pain.flac -=- CDDA (100%)
16 -=- Rock Ya.flac -=- CDDA (100%)
17 -=- Sun Rising.flac -=- CDDA (100%)
18 -=- The Sectret Beach.flac -=- CDDA (99%)
19 -=- Time Flies.flac -=- CDDA (100%)
20 -=- Universal Music.flac -=- CDDA (100%)

Summary 95,15% CDDA

26453908
[/color]
[/color]

Доп.информация:

Обратите внимание,что "audiochecker" на 2CD показывает 7 трек как "Mpeg",хотя "Tau" определила 5 трек,как "Mpeg".
Вот их спектры:

Короче верить лучше собственным ушам.Рип с собственного диска,полиграфия есть,кроме фронтальной обложки(канула в лету).Приятного прослушивания!



   Похожие торренты   Размер 
В этой теме нет новых непрочитанных сообщений. VA - The Best Of Dream Dance (1996-2000) [Compiled by Zebyte] (2015) MP3

937.63 МБ

В этой теме нет новых непрочитанных сообщений. VA - Dream Dance Vol.76 [3CD] (2015) FLAC

1.72 ГБ

В этой теме нет новых непрочитанных сообщений. VA - Dream Dance Vol.75 (2015) FLAC

1.78 ГБ

В этой теме нет новых непрочитанных сообщений. VA - Dream Dance Vol.79 [3CD] (2016) FLAC

1.71 ГБ

В этой теме нет новых непрочитанных сообщений. VA - Dream Dance Vol.81 [3CD] (2016) FLAC

1.71 ГБ

В этой теме нет новых непрочитанных сообщений. VA - Dream Dance Vol.74 [3CD] (2015) FLAC

1.74 ГБ

В этой теме нет новых непрочитанных сообщений. VA - Dream Dance Vol.80 [3CD] (2016) FLAC

1.72 ГБ




Вы не можете начинать темы
Вы не можете отвечать на сообщения
Вы не можете редактировать свои сообщения
Вы не можете удалять свои сообщения
Вы не можете добавлять вложения

Перейти:  
 Вход
ppkBB3cker v.2 © 2008-2014 @ PPK
[ Time : 0.024s | 18 Queries | GZIP : Off ]

Для правообладателей, рекламодателей и роскомнадзора: rstracker[собачка]yandex.ru
cron