img
Planets Sun Sun Sun
Статистика раздачи
Автор: mari | Размер: 515.67 МБ | Добавлен: 28 июл 2013
Скачать торрент
Скачать торрент

СообщениеДобавлено: 28 июл 2013 

#77

Hypocrisy - A Taste of Extreme Divinity
Год выпуска диска: 2009
Стиль: Melodic Death Metal
Формат/Кодек: APE (image+.cue)
Битрейт аудио: lossless
Продолжительность: 55:17

Трек-лист:

1. Valley Of The Damned (4:17)
2. Hang Him High (4:35)
3. Solar Empire (5:16)
4. Weed Out The Weak (3:50)
5. No Tomorrow (4:16)
6. Global Domination (5:15)
7. Taste The Extreme Divinity (3:36)
8. Alive (4:22)
9. The Quest (5:31)
10. Tamed "Filled With Fear" (4:39)
11. Sky Is Falling Down (4:32)
12. The Sinner (5:06)

Exact Audio Copy V0.99 prebeta 4 from 23. January 2008
EAC extraction logfile from 21. October 2009, 10:43
Hypocrisy / A Taste Of Extreme Divinity
Used drive : ATAPI DVD A DH20A4P Adapter: 3 ID: 0
Read mode : Secure
Utilize accurate stream : Yes
Defeat audio cache : Yes
Make use of C2 pointers : No
Read offset correction : 6
Overread into Lead-In and Lead-Out : No
Fill up missing offset samples with silence : Yes
Delete leading and trailing silent blocks : No
Null samples used in CRC calculations : Yes
Used interface : Installed external ASPI interface
Used output format : Monkey's Audio Lossless Encoder
Selected bitrate : High Lossless Compression
Quality : High
Add ID3 tag : Yes
Command line compressor : C:Program FilesMonkey's AudioMAC.exe
TOC of the extracted CD
Track | Start | Length | Start sector | End sector
---------------------------------------------------------
1 | 0:00.00 | 4:17.01 | 0 | 19275
2 | 4:17.01 | 4:34.70 | 19276 | 39895
3 | 8:51.71 | 5:15.59 | 39896 | 63579
4 | 14:07.55 | 3:50.01 | 63580 | 80830
5 | 17:57.56 | 4:16.23 | 80831 | 100053
6 | 22:14.04 | 5:14.43 | 100054 | 123646
7 | 27:28.47 | 3:36.27 | 123647 | 139873
8 | 31:04.74 | 4:21.66 | 139874 | 159514
9 | 35:26.65 | 5:31.29 | 159515 | 184368
10 | 40:58.19 | 4:39.00 | 184369 | 205293
11 | 45:37.19 | 4:32.65 | 205294 | 225758
12 | 50:10.09 | 5:06.44 | 225759 | 248752
Range status and errors
Selected range
Filename D:DownloadHypocrisy - A Taste Of Extreme Divinity.wav
Peak level 99.2 %
Range quality 100.0 %
Copy CRC DE8C04E5
Copy OK
No errors occurred
AccurateRip summary
Track 1 not present in database
Track 2 not present in database
Track 3 not present in database
Track 4 not present in database
Track 5 not present in database
Track 6 not present in database
Track 7 not present in database
Track 8 not present in database
Track 9 not present in database
Track 10 not present in database
Track 11 not present in database
Track 12 not present in database
None of the tracks are present in the AccurateRip database
End of status report


Дополнительная информация:

Трейлеры HYPOCRISY - A Taste of Extreme Divinity (Album Trailer - Pt. 1)
HYPOCRISY - A Taste of Extreme Divinity (Album Trailer - Pt. 2)

Cостав:
Петер Тагтгрен — вокал, гитара, клавишные
Микаэль Хедлунд — бас
Рейдар «Хорг» Хоргхаген — ударные



   Похожие торренты   Размер 
В этой теме нет новых непрочитанных сообщений. Extreme Noise Terror - Extreme Noise Terror (2015) MP3

59.97 МБ

В этой теме нет новых непрочитанных сообщений. Hideous Divinity - Дискография [2012-2017, Technical death metal, MP3]

326.29 МБ

В этой теме нет новых непрочитанных сообщений. VA - Chillout Extreme (2015) MP3

387.81 МБ

В этой теме нет новых непрочитанных сообщений. VA - Tech Taste, Vol. 2 (2017) MP3

211.43 МБ

В этой теме нет новых непрочитанных сообщений. VA - Taste Of Chillhouse (2015) MP3

223.66 МБ

В этой теме нет новых непрочитанных сообщений. VA - Extreme Hardstyle Tunez (2015) MP3

520.08 МБ

В этой теме нет новых непрочитанных сообщений. VA - Progressive House Extreme (2015) MP3

244.02 МБ




Вы не можете начинать темы
Вы не можете отвечать на сообщения
Вы не можете редактировать свои сообщения
Вы не можете удалять свои сообщения
Вы не можете добавлять вложения

Перейти:  
 Вход
ppkBB3cker v.2 © 2008-2014 @ PPK
[ Time : 0.019s | 18 Queries | GZIP : Off ]

Для правообладателей, рекламодателей и роскомнадзора: rstracker[собачка]yandex.ru
cron